.
Авторизация | Регистрация
Хочешь лучшие торренты? Добавь свой email!
Добавить

Торрент скачать бесплатно

» » My Little Pony в кино (Мой маленький пони) / My Little Pony: The Movie (2017) WEB-DLRip торрент скачать бесплатно




    My Little Pony в кино (Мой маленький пони) / My Little Pony: The Movie (2017) WEB-DLRip торрент скачать бесплатно

    Опубликовал: Админ | Дата: 25-12-2017, 05:00 | Просмотров: 0

    Производство: Канада, США
    Жанр: мультфильм, мюзикл, фэнтези, комедия, приключения, семейный
    Режиссер: Джейсон Тиссен

    Актеры
    Тара Стронг, Эшли Болл, Андреа Либман, Табита Сен-Жермен, Кэти Уэслак, Эмили Блант, Кристин Ченоуэт, Лив Шрайбер, Майкл Пенья, Сиа

    Описание

    Король Шторм хочет лишить пони магии и захватывает Кантерлот. Под угрозой будущее всей Эквестрии! Чтобы остановить злодея, пони покидают родные края и отправляются в путешествие, полное чудес и опасностей. Им предстоит покорить волшебные горы, погрузиться в подводные миры и даже оказаться на летучем пиратском корабле!

    Возраст: 6+ (зрителям, достигшим 6 лет)
    Рейтинг MPAA: PG (рекомендуется присутствие родителей)
    Дата мировой премьеры: 20 сентября 2017
    Дата премьеры в РФ: 21 сентября 2017, Каро-Премьер

    Продолжительность: 01: 39: 07
    Качество видео: WEB-DLRip
    Перевод: Дублированный (iTunes)
    Субтитры: Отсутствуют
    Видео: MPEG4, XviD, 720x304 (2.35: 1), 24.000 fps, 1 712 Kbps (0.326 bit/pixel)
    Аудио: AC-3, 48.0 KHz, 6 ch, 384 Kbps, CBR
    Код: выделить все
    Общее
    Полное имя : D:[1]МультфильмыМой маленький пониMy Little Pony в кино (2017)_WEB-DLRip.avi
    Формат : AVI
    Формат/Информация : Audio Video Interleave
    Размер файла : 1, 46 Гбайт
    Продолжительность : 1 ч. 39 м.
    Общий поток : 2105 Кбит/сек
    Программа кодирования : VirtualDubMod 1.5.10.2 (build 2540/release)
    Библиотека кодирования : VirtualDubMod build 2540/release
    Видео
    Идентификатор : 0
    Формат : MPEG-4 Visual
    Профиль формата : Advanced Simple@L5
    Параметр BVOP формата : 2
    Параметр QPel формата : Нет
    Параметр GMC формата : Без точки перехода
    Параметр матрицы формата : Default (MPEG)
    Идентификатор кодека : XVID
    Идентификатор кодека/Подсказка : XviD
    Продолжительность : 1 ч. 39 м.
    Битрейт : 1712 Кбит/сек
    Ширина : 720 пикселей
    Высота : 304 пикселя
    Соотношение сторон : 2, 35:1
    Частота кадров : 24, 000 кадра/сек
    Цветовое пространство : YUV
    Субдискретизация насыщенности : 4:2:0
    Битовая глубина : 8 бит
    Тип развёртки : Прогрессивная
    Метод сжатия : С потерями
    Бит/(Пиксели*Кадры) : 0.326
    Размер потока : 1, 19 Гбайт (81%)
    Библиотека кодирования : XviD 1.2.1 (UTC 2008-12-04)
    Аудио
    Идентификатор : 1
    Формат : AC-3
    Формат/Информация : Audio Coding 3
    Расширение режима : CM (complete main)
    Параметр Endianness формата : Big
    Идентификатор кодека : 2000
    Продолжительность : 1 ч. 39 м.
    Вид битрейта : Постоянный
    Битрейт : 384 Кбит/сек
    Каналы : 6 каналов
    Расположение каналов : Front: L C R, Side: L R, LFE
    Частота : 48, 0 КГц
    Битовая глубина : 16 бит
    Метод сжатия : С потерями
    Размер потока : 272 Мбайт (18%)
    Выравнивание : Разделение по промежуткам
    Продолжительность промежутка : 42 мс. (1, 00 видеокадр)
    Время предзагрузки промежутка : 500 мс.

    Скриншоты для ознакомления



    Все одноименные релизы в Клубе
    Время раздачи: 24/7. До первых 5 скачавших.


    Онлайн видео My Little Pony в кино (Мой маленький пони)



    My Little Pony в кино (Мой маленький пони)/My Little Pony: The Movie (2017) WEB-DLRip
    Рейтинг →
     (голосов: 1, оценка 5/5, голосовать можно 1 раз )

    Другие торренты по теме:

  • My Little Pony в кино / My Little Pony: The Movie (2017) WEB-DL [H.265 / 1080p-LQ] [EN]
  • My Little Pony в кино (Мой маленький пони) / My Little Pony: The Movie (2017) WEB-DLRip [Line] [AD]
  • My Little Pony в кино (Мой маленький пони) / My Little Pony: The Movie (2017) WEB-DLRip [H.264 / 1080p-LQ] [Line] [AD]
  • My Little Pony в кино (Мой маленький пони) / My Little Pony: The Movie (2017) WEB-DL [H.264 / 1080p-LQ]
  • Мой маленький пони: Девочки из Эквестрии Радужный рок / My Little Pony: Equestria Girls Rainbow Rocks (2014) WEB-DLRip скачать через торрент бесплатно
  • Мой маленький пони. Дружба - это чудо / My Little Pony: Friendship Is Magic (2011) WEB-DL [H.264] (сезон 2 серии 01-26 из 26) скачать через торрент бесплатно
  • Мой Маленький Пони: Дружба - это Чудо / My Little Pony: Friendship Is Magic (2015) WEB-DL [H.264 / 1080p] (Сезон 5, серии 1-9 из 26) скачать через торрент бесплатно
  • Мой маленький пони: Девочки из Эквестрии – Игры дружбы / My Little Pony: Equestria Girls - Friendship Games (2015) BDRip скачать через торрент бесплатно


    • Комментарии (0):

      Информация

      Информация

        Посетители, находящиеся в группе Гости, не могут оставлять комментарии в данной новости.

        ↓ Меню




        ↓ Опрос

        Вы добавили сайт в закладки?
        Да
        Нет


        Top 10 за месяц (Мультфильмы)

        Четверо в Кубе (2017) WEB-DLRip [H.264 / 720p-LQ] (серия 1 из 26) [Обновляемая]

        (скачиваний: 38)
        Рэй и пожарный патруль / Ray – Fire Engine (2017) WEB-DLRip [H.264 / 720p-LQ] (сезон 1, серии 1-26 из 26) [Обновляемая]

        (скачиваний: 24)
        Дружные мопсы / Puppy Dog Pals (2017) SATRip (Сезон 1, серий 16 из ) [Обновляемая]

        (скачиваний: 15)
        Ginga Tetsudou 999 / Ginga Tetsudo 999 / Galaxy Express 999 / Галактический экспресс 999 [1978, TV, 113] DVDRip 720p Hi10P raw

        (скачиваний: 11)
        Анна Быкова | Секреты спокойствия «ленивой мамы» (2017) [FB2]

        (скачиваний: 11)
        Я.И. Перельман | Не верь своим глазам! (1926) [PDF]

        (скачиваний: 9)
        Р.В. Душкин | Криптографические приключения. Таинственные шифры и математические задачи (2018) [PDF, RTF]

        (скачиваний: 9)
        Королевская академия / Regal Academy (2016) SATRip [H.264] (Сезон 1, 26 серий из 26) [UKR]

        (скачиваний: 8)
        Дмитрий Елисеев | Цифровая электроника для начинающих (2018) [PDF, FB2, RTF]

        (скачиваний: 7)
        Doragon Bōru Zetto: Kami to Kami / Dragonball Z - Battle of Gods / Драгонболл Зет - Битва Богов (2014, MV) BDRip hi10p 1080p Raw скачать через торрент бесплатно

        (скачиваний: 6)