.
Авторизация | Регистрация
Хочешь лучшие торренты? Добавь свой email!
Добавить

Торрент скачать бесплатно

» » Whitesnake - The Purple Tour 2015 (2018) DVD5 торрент скачать бесплатно




    Whitesnake - The Purple Tour 2015 (2018) DVD5 торрент скачать бесплатно

    Опубликовал: Админ | Дата: 13-02-2018, 05:00 | Просмотров: 15

    Производство: Rhino Records/A Warner Music Group Company
    Жанр: rock
    Режиссер: Tyler Bourns
    Актеры: Whitesnake

    Описание

    Видеоверсия выступления Whitesnake в рамках The Purple Tour в декабре 2015г.

    Треклист

    01.Intro
    02.Burn
    03.Bad Boys
    04.Love Ain\'t No Stranger
    05.The Gypsy
    06.Give Me All Your Love
    07.Ain\'t No Love In The Heart Of The City
    08.Mistreated
    09.You Fool No One
    10.Drum Solo
    11.Guitar Solo
    12.Soldier Of Fortune
    13.Is This Love
    14.Fool For Your Loving
    15.Here I Go Again
    16.Still Of The Night
    17.Credits
    Дата выхода DVD/Blu-ray релиза: 19.01.2018
    Релиз от: eugene6691
    Продолжительность: 01: 20: 01
    Качество видео: DVD5
    Перевод: Отсутствует
    Язык: английский
    Субтитры: отсутствуют
    Видео: MPEG-2, 720x480@853x480, ~7500 Kbps
    Аудио: AC3, 2 ch, 448 Kbps ; AC3, 5.1 ch, 448 Kbps

    Общее
    Полное имя : D: Whitesnake - The Purple Tour \'2015VIDEO_TSVIDEO_TS.BUP
    Формат : DVD Video
    Профиль формата : Menu
    Размер файла : 14, 0 Кбайт
    Режим общего битрейта : Переменный
    FileExtension_Invalid : ifo
    Видео
    Идентификатор : 224 (0xE0)
    Формат : MPEG Video
    Версия формата : Version 2
    Вид битрейта : Переменный
    Ширина : 720 пикселей
    Высота : 480 пикселей
    Соотношение сторон : 16: 9
    Частота кадров : 29, 970 (29970/1000) кадров/сек
    Стандарт вещания : NTSC
    Метод сжатия : С потерями
    Текст
    Формат : RLE
    Формат/Информация : Run-length encoding
    Битовая глубина : 2 бит
    Общее
    Полное имя : D: Whitesnake - The Purple Tour \'2015VIDEO_TSVIDEO_TS.IFO
    Формат : DVD Video
    Профиль формата : Menu
    Размер файла : 14, 0 Кбайт
    Режим общего битрейта : Переменный
    Видео
    Идентификатор : 224 (0xE0)
    Формат : MPEG Video
    Версия формата : Version 2
    Вид битрейта : Переменный
    Ширина : 720 пикселей
    Высота : 480 пикселей
    Соотношение сторон : 16: 9
    Частота кадров : 29, 970 (29970/1000) кадров/сек
    Стандарт вещания : NTSC
    Метод сжатия : С потерями
    Текст
    Формат : RLE
    Формат/Информация : Run-length encoding
    Битовая глубина : 2 бит
    Общее
    Полное имя : D: Whitesnake - The Purple Tour \'2015VIDEO_TSVIDEO_TS.VOB
    Формат : MPEG-PS
    Размер файла : 410 Кбайт
    Продолжительность : 467 мс.
    Общий поток : 7192 Кбит/сек
    Библиотека кодирования : encoded by TMPGEnc Authoring Works 4 Version. 4.0.11.39
    Видео
    Идентификатор : 224 (0xE0)
    Формат : MPEG Video
    Версия формата : Version 2
    Профиль формата : Main@Main
    Настройки формата : CustomMatrix/BVOP
    Параметр BVOP формата : Да
    Параметр матрицы формата : Выборочная
    Продолжительность : 467 мс.
    Вид битрейта : Постоянный
    Максимальный битрейт : 7000 Кбит/сек
    Ширина : 720 пикселей
    Высота : 480 пикселей
    Соотношение сторон : 16: 9
    Частота кадров : 29, 970 (30000/1001) кадров/сек
    Стандарт вещания : NTSC
    Цветовое пространство : YUV
    Субдискретизация насыщенности : 4: 2: 0
    Битовая глубина : 8 бит
    Тип развёртки : Прогрессивная
    Метод сжатия : С потерями
    Временной код первого кадра : 00: 00: 00: 00
    Оригинал временного кода : Group of pictures t_head
    Библиотека кодирования : TMPGEnc Authoring Works 4 Version. 4.0.11.39
    Основные цвета : BT.601 NTSC
    Характеристики трансфера : BT.601
    Коэффициенты матрицы : BT.601
    Текст #1
    Идентификатор : 189 (0xBD)-32 (0x20)
    Формат : RLE
    Формат/Информация : Run-length encoding
    Режим смешивания : DVD-Video
    Текст #2
    Идентификатор : 189 (0xBD)-33 (0x21)
    Формат : RLE
    Формат/Информация : Run-length encoding
    Режим смешивания : DVD-Video
    Меню
    Общее
    Полное имя : D: Whitesnake - The Purple Tour \'2015VIDEO_TSVTS_01_0.BUP
    Формат : DVD Video
    Профиль формата : Program
    Размер файла : 74, 0 Кбайт
    Продолжительность : 1 ч. 20 м.
    Режим общего битрейта : Переменный
    Общий поток : 125 бит/сек
    FileExtension_Invalid : ifo
    Видео
    Идентификатор : 224 (0xE0)
    Формат : MPEG Video
    Версия формата : Version 2
    Продолжительность : 1 ч. 20 м.
    Вид битрейта : Переменный
    Ширина : 720 пикселей
    Высота : 480 пикселей
    Соотношение сторон : 16: 9
    Частота кадров : 29, 970 (29970/1000) кадров/сек
    Стандарт вещания : NTSC
    Метод сжатия : С потерями
    Аудио #1
    Идентификатор : 128 (0x80)
    Формат : AC-3
    Формат/Информация : Audio Coding 3
    Продолжительность : 1 ч. 20 м.
    Каналы : 2 канала
    Частота : 48, 0 КГц
    Метод сжатия : С потерями
    Язык : English
    Аудио #2
    Идентификатор : 129 (0x81)
    Формат : AC-3
    Формат/Информация : Audio Coding 3
    Продолжительность : 1 ч. 20 м.
    Каналы : 6 каналов
    Частота : 48, 0 КГц
    Метод сжатия : С потерями
    Язык : English
    Меню
    Продолжительность : 1 ч. 20 м.
    00: 00: 00.000 : Chapter 1
    00: 01: 23.000 : Chapter 2
    00: 08: 12.500 : Chapter 3
    00: 13: 44.500 : Chapter 4
    00: 18: 01.500 : Chapter 5
    00: 23: 23.500 : Chapter 6
    00: 27: 56.000 : Chapter 7
    00: 34: 34.500 : Chapter 8
    00: 42: 31.000 : Chapter 9
    00: 47: 11.000 : Chapter 10
    00: 50: 54.000 : Chapter 11
    00: 51: 58.500 : Chapter 12
    00: 55: 47.500 : Chapter 13
    01: 00: 25.000 : Chapter 14
    01: 04: 45.500 : Chapter 15
    01: 10: 40.000 : Chapter 16
    01: 18: 59.500 : Chapter 17
    List (Audio) : 0/1
    Общее
    Полное имя : D: Whitesnake - The Purple Tour \'2015VIDEO_TSVTS_01_0.IFO
    Формат : DVD Video
    Профиль формата : Program
    Размер файла : 74, 0 Кбайт
    Продолжительность : 1 ч. 20 м.
    Режим общего битрейта : Переменный
    Общий поток : 125 бит/сек
    Видео
    Идентификатор : 224 (0xE0)
    Формат : MPEG Video
    Версия формата : Version 2
    Продолжительность : 1 ч. 20 м.
    Вид битрейта : Переменный
    Ширина : 720 пикселей
    Высота : 480 пикселей
    Соотношение сторон : 16: 9
    Частота кадров : 29, 970 (29970/1000) кадров/сек
    Стандарт вещания : NTSC
    Метод сжатия : С потерями
    Аудио #1
    Идентификатор : 128 (0x80)
    Формат : AC-3
    Формат/Информация : Audio Coding 3
    Продолжительность : 1 ч. 20 м.
    Каналы : 2 канала
    Частота : 48, 0 КГц
    Метод сжатия : С потерями
    Язык : English
    Аудио #2
    Идентификатор : 129 (0x81)
    Формат : AC-3
    Формат/Информация : Audio Coding 3
    Продолжительность : 1 ч. 20 м.
    Каналы : 6 каналов
    Частота : 48, 0 КГц
    Метод сжатия : С потерями
    Язык : English
    Меню
    Продолжительность : 1 ч. 20 м.
    00: 00: 00.000 : Chapter 1
    00: 01: 23.000 : Chapter 2
    00: 08: 12.500 : Chapter 3
    00: 13: 44.500 : Chapter 4
    00: 18: 01.500 : Chapter 5
    00: 23: 23.500 : Chapter 6
    00: 27: 56.000 : Chapter 7
    00: 34: 34.500 : Chapter 8
    00: 42: 31.000 : Chapter 9
    00: 47: 11.000 : Chapter 10
    00: 50: 54.000 : Chapter 11
    00: 51: 58.500 : Chapter 12
    00: 55: 47.500 : Chapter 13
    01: 00: 25.000 : Chapter 14
    01: 04: 45.500 : Chapter 15
    01: 10: 40.000 : Chapter 16
    01: 18: 59.500 : Chapter 17
    List (Audio) : 0/1
    Общее
    Полное имя : D: Whitesnake - The Purple Tour \'2015VIDEO_TSVTS_01_0.VOB
    Формат : MPEG-PS
    Размер файла : 1, 64 Мбайт
    Продолжительность : 467 мс.
    Общий поток : 29, 5 Мбит/сек
    Библиотека кодирования : encoded by TMPGEnc Authoring Works 4 Version. 4.0.11.39
    Видео
    Идентификатор : 224 (0xE0)
    Формат : MPEG Video
    Версия формата : Version 2
    Профиль формата : Main@Main
    Настройки формата : CustomMatrix/BVOP
    Параметр BVOP формата : Да
    Параметр матрицы формата : Выборочная
    Продолжительность : 467 мс.
    Вид битрейта : Постоянный
    Максимальный битрейт : 7000 Кбит/сек
    Ширина : 720 пикселей
    Высота : 480 пикселей
    Соотношение сторон : 16: 9
    Частота кадров : 29, 970 (30000/1001) кадров/сек
    Стандарт вещания : NTSC
    Цветовое пространство : YUV
    Субдискретизация насыщенности : 4: 2: 0
    Битовая глубина : 8 бит
    Тип развёртки : Прогрессивная
    Метод сжатия : С потерями
    Библиотека кодирования : TMPGEnc Authoring Works 4 Version. 4.0.11.39
    Основные цвета : BT.601 NTSC
    Характеристики трансфера : BT.601
    Коэффициенты матрицы : BT.601
    Текст #1
    Идентификатор : 189 (0xBD)-32 (0x20)
    Формат : RLE
    Формат/Информация : Run-length encoding
    Режим смешивания : DVD-Video
    Текст #2
    Идентификатор : 189 (0xBD)-33 (0x21)
    Формат : RLE
    Формат/Информация : Run-length encoding
    Режим смешивания : DVD-Video
    Меню
    Общее
    Полное имя : D: Whitesnake - The Purple Tour \'2015VIDEO_TSVTS_01_1.VOB
    Формат : MPEG-PS
    Размер файла : 1024 Мбайт
    Продолжительность : 18 м. 6 с.
    Режим общего битрейта : Переменный
    Общий поток : 7906 Кбит/сек
    Видео
    Идентификатор : 224 (0xE0)
    Формат : MPEG Video
    Версия формата : Version 2
    Профиль формата : Main@Main
    Настройки формата : BVOP
    Параметр BVOP формата : Да
    Параметр матрицы формата : По умолчанию
    Параметр GOP формата : M=3, N=15
    Продолжительность : 18 м. 6 с.
    Вид битрейта : Переменный
    Битрейт : 6853 Кбит/сек
    Максимальный битрейт : 9200 Кбит/сек
    Ширина : 720 пикселей
    Высота : 480 пикселей
    Соотношение сторон : 16: 9
    Частота кадров : 29, 970 (30000/1001) кадров/сек
    Стандарт вещания : NTSC
    Цветовое пространство : YUV
    Субдискретизация насыщенности : 4: 2: 0
    Битовая глубина : 8 бит
    Тип развёртки : Прогрессивная
    Метод сжатия : С потерями
    Бит/(Пиксели*Кадры) : 0.662
    Временной код первого кадра : 00: 00: 00: 00
    Оригинал временного кода : Group of pictures t_head
    GOP, открыто/закрыто : Закрыто
    Размер потока : 887 Мбайт (87%)
    Основные цвета : BT.601 NTSC
    Характеристики трансфера : BT.601
    Коэффициенты матрицы : BT.601
    Аудио #1
    Идентификатор : 189 (0xBD)-128 (0x80)
    Формат : AC-3
    Формат/Информация : Audio Coding 3
    Режим смешивания : DVD-Video
    Продолжительность : 18 м. 6 с.
    Вид битрейта : Постоянный
    Битрейт : 448 Кбит/сек
    Каналы : 2 канала
    Расположение каналов : Front: L R
    Частота : 48, 0 КГц
    Частота кадров : 31, 250 кадров/сек (1536 SPF)
    Битовая глубина : 16 бит
    Метод сжатия : С потерями
    Размер потока : 58, 0 Мбайт (6%)
    ServiceKind/String : Complete Main
    Аудио #2
    Идентификатор : 189 (0xBD)-129 (0x81)
    Формат : AC-3
    Формат/Информация : Audio Coding 3
    Режим смешивания : DVD-Video
    Продолжительность : 18 м. 5 с.
    Вид битрейта : Постоянный
    Битрейт : 448 Кбит/сек
    Каналы : 6 каналов
    Расположение каналов : Front: L C R, Side: L R, LFE
    Частота : 48, 0 КГц
    Частота кадров : 31, 250 кадров/сек (1536 SPF)
    Битовая глубина : 16 бит
    Метод сжатия : С потерями
    Размер потока : 58, 0 Мбайт (6%)
    ServiceKind/String : Complete Main
    Меню
    Общее
    Полное имя : D: Whitesnake - The Purple Tour \'2015VIDEO_TSVTS_01_2.VOB
    Формат : MPEG-PS
    Размер файла : 1024 Мбайт
    Продолжительность : 19 м. 9 с.
    Режим общего битрейта : Переменный
    Общий поток : 7474 Кбит/сек
    Видео
    Идентификатор : 224 (0xE0)
    Формат : MPEG Video
    Версия формата : Version 2
    Профиль формата : Main@Main
    Настройки формата : BVOP
    Параметр BVOP формата : Да
    Параметр матрицы формата : По умолчанию
    Параметр GOP формата : M=3, N=15
    Продолжительность : 19 м. 8 с.
    Вид битрейта : Переменный
    Битрейт : 6429 Кбит/сек
    Максимальный битрейт : 9200 Кбит/сек
    Ширина : 720 пикселей
    Высота : 480 пикселей
    Соотношение сторон : 16: 9
    Частота кадров : 29, 970 (30000/1001) кадров/сек
    Стандарт вещания : NTSC
    Цветовое пространство : YUV
    Субдискретизация насыщенности : 4: 2: 0
    Битовая глубина : 8 бит
    Тип развёртки : Прогрессивная
    Метод сжатия : С потерями
    Бит/(Пиксели*Кадры) : 0.621
    Временной код первого кадра : 00: 18: 05: 15
    Оригинал временного кода : Group of pictures t_head
    GOP, открыто/закрыто : Закрыто
    Размер потока : 880 Мбайт (86%)
    Основные цвета : BT.601 NTSC
    Характеристики трансфера : BT.601
    Коэффициенты матрицы : BT.601
    Аудио #1
    Идентификатор : 189 (0xBD)-128 (0x80)
    Формат : AC-3
    Формат/Информация : Audio Coding 3
    Режим смешивания : DVD-Video
    Продолжительность : 19 м. 9 с.
    Вид битрейта : Постоянный
    Битрейт : 448 Кбит/сек
    Каналы : 2 канала
    Расположение каналов : Front: L R
    Частота : 48, 0 КГц
    Частота кадров : 31, 250 кадров/сек (1536 SPF)
    Битовая глубина : 16 бит
    Метод сжатия : С потерями
    Задержка видео : -538 мс.
    Размер потока : 61, 4 Мбайт (6%)
    ServiceKind/String : Complete Main
    Аудио #2
    Идентификатор : 189 (0xBD)-129 (0x81)
    Формат : AC-3
    Формат/Информация : Audio Coding 3
    Режим смешивания : DVD-Video
    Продолжительность : 19 м. 9 с.
    Вид битрейта : Постоянный
    Битрейт : 448 Кбит/сек
    Каналы : 6 каналов
    Расположение каналов : Front: L C R, Side: L R, LFE
    Частота : 48, 0 КГц
    Частота кадров : 31, 250 кадров/сек (1536 SPF)
    Битовая глубина : 16 бит
    Метод сжатия : С потерями
    Задержка видео : -570 мс.
    Размер потока : 61, 4 Мбайт (6%)
    ServiceKind/String : Complete Main
    Меню
    Общее
    Полное имя : D: Whitesnake - The Purple Tour \'2015VIDEO_TSVTS_01_3.VOB
    Формат : MPEG-PS
    Размер файла : 1024 Мбайт
    Продолжительность : 18 м. 39 с.
    Режим общего битрейта : Переменный
    Общий поток : 7669 Кбит/сек
    Видео
    Идентификатор : 224 (0xE0)
    Формат : MPEG Video
    Версия формата : Version 2
    Профиль формата : Main@Main
    Настройки формата : BVOP
    Параметр BVOP формата : Да
    Параметр матрицы формата : По умолчанию
    Параметр GOP формата : M=3, N=15
    Продолжительность : 18 м. 39 с.
    Вид битрейта : Переменный
    Битрейт : 6621 Кбит/сек
    Максимальный битрейт : 9200 Кбит/сек
    Ширина : 720 пикселей
    Высота : 480 пикселей
    Соотношение сторон : 16: 9
    Частота кадров : 29, 970 (30000/1001) кадров/сек
    Стандарт вещания : NTSC
    Цветовое пространство : YUV
    Субдискретизация насыщенности : 4: 2: 0
    Битовая глубина : 8 бит
    Тип развёртки : Прогрессивная
    Метод сжатия : С потерями
    Бит/(Пиксели*Кадры) : 0.639
    Временной код первого кадра : 00: 37: 13: 15
    Оригинал временного кода : Group of pictures t_head
    GOP, открыто/закрыто : Закрыто
    Размер потока : 884 Мбайт (86%)
    Основные цвета : BT.601 NTSC
    Характеристики трансфера : BT.601
    Коэффициенты матрицы : BT.601
    Аудио #1
    Идентификатор : 189 (0xBD)-128 (0x80)
    Формат : AC-3
    Формат/Информация : Audio Coding 3
    Режим смешивания : DVD-Video
    Продолжительность : 18 м. 39 с.
    Вид битрейта : Постоянный
    Битрейт : 448 Кбит/сек
    Каналы : 2 канала
    Расположение каналов : Front: L R
    Частота : 48, 0 КГц
    Частота кадров : 31, 250 кадров/сек (1536 SPF)
    Битовая глубина : 16 бит
    Метод сжатия : С потерями
    Задержка видео : -598 мс.
    Размер потока : 59, 8 Мбайт (6%)
    ServiceKind/String : Complete Main
    Аудио #2
    Идентификатор : 189 (0xBD)-129 (0x81)
    Формат : AC-3
    Формат/Информация : Audio Coding 3
    Режим смешивания : DVD-Video
    Продолжительность : 18 м. 39 с.
    Вид битрейта : Постоянный
    Битрейт : 448 Кбит/сек
    Каналы : 6 каналов
    Расположение каналов : Front: L C R, Side: L R, LFE
    Частота : 48, 0 КГц
    Частота кадров : 31, 250 кадров/сек (1536 SPF)
    Битовая глубина : 16 бит
    Метод сжатия : С потерями
    Задержка видео : -598 мс.
    Размер потока : 59, 8 Мбайт (6%)
    ServiceKind/String : Complete Main
    Меню
    Общее
    Полное имя : D: Whitesnake - The Purple Tour \'2015VIDEO_TSVTS_01_4.VOB
    Формат : MPEG-PS
    Размер файла : 1024 Мбайт
    Продолжительность : 18 м. 56 с.
    Режим общего битрейта : Переменный
    Общий поток : 7554 Кбит/сек
    Видео
    Идентификатор : 224 (0xE0)
    Формат : MPEG Video
    Версия формата : Version 2
    Профиль формата : Main@Main
    Настройки формата : BVOP
    Параметр BVOP формата : Да
    Параметр матрицы формата : По умолчанию
    Параметр GOP формата : M=3, N=15
    Продолжительность : 18 м. 56 с.
    Вид битрейта : Переменный
    Битрейт : 6508 Кбит/сек
    Максимальный битрейт : 9200 Кбит/сек
    Ширина : 720 пикселей
    Высота : 480 пикселей
    Соотношение сторон : 16: 9
    Частота кадров : 29, 970 (30000/1001) кадров/сек
    Стандарт вещания : NTSC
    Цветовое пространство : YUV
    Субдискретизация насыщенности : 4: 2: 0
    Битовая глубина : 8 бит
    Тип развёртки : Прогрессивная
    Метод сжатия : С потерями
    Бит/(Пиксели*Кадры) : 0.628
    Временной код первого кадра : 00: 55: 52: 00
    Оригинал временного кода : Group of pictures t_head
    GOP, открыто/закрыто : Закрыто
    Размер потока : 882 Мбайт (86%)
    Основные цвета : BT.601 NTSC
    Характеристики трансфера : BT.601
    Коэффициенты матрицы : BT.601
    Аудио #1
    Идентификатор : 189 (0xBD)-128 (0x80)
    Формат : AC-3
    Формат/Информация : Audio Coding 3
    Режим смешивания : DVD-Video
    Продолжительность : 18 м. 56 с.
    Вид битрейта : Постоянный
    Битрейт : 448 Кбит/сек
    Каналы : 2 канала
    Расположение каналов : Front: L R
    Частота : 48, 0 КГц
    Частота кадров : 31, 250 кадров/сек (1536 SPF)
    Битовая глубина : 16 бит
    Метод сжатия : С потерями
    Задержка видео : -344 мс.
    Размер потока : 60, 7 Мбайт (6%)
    ServiceKind/String : Complete Main
    Аудио #2
    Идентификатор : 189 (0xBD)-129 (0x81)
    Формат : AC-3
    Формат/Информация : Audio Coding 3
    Режим смешивания : DVD-Video
    Продолжительность : 18 м. 56 с.
    Вид битрейта : Постоянный
    Битрейт : 448 Кбит/сек
    Каналы : 6 каналов
    Расположение каналов : Front: L C R, Side: L R, LFE
    Частота : 48, 0 КГц
    Частота кадров : 31, 250 кадров/сек (1536 SPF)
    Битовая глубина : 16 бит
    Метод сжатия : С потерями
    Задержка видео : -344 мс.
    Размер потока : 60, 7 Мбайт (6%)
    ServiceKind/String : Complete Main
    Меню
    Общее
    Полное имя : D: Whitesnake - The Purple Tour \'2015VIDEO_TSVTS_01_5.VOB
    Формат : MPEG-PS
    Размер файла : 356 Мбайт
    Продолжительность : 5 м. 48 с.
    Режим общего битрейта : Переменный
    Общий поток : 8573 Кбит/сек
    Видео
    Идентификатор : 224 (0xE0)
    Формат : MPEG Video
    Версия формата : Version 2
    Профиль формата : Main@Main
    Настройки формата : BVOP
    Параметр BVOP формата : Да
    Параметр матрицы формата : По умолчанию
    Параметр GOP формата : M=3, N=15
    Продолжительность : 5 м. 48 с.
    Вид битрейта : Переменный
    Битрейт : 7506 Кбит/сек
    Максимальный битрейт : 9200 Кбит/сек
    Ширина : 720 пикселей
    Высота : 480 пикселей
    Соотношение сторон : 16: 9
    Частота кадров : 29, 970 (30000/1001) кадров/сек
    Стандарт вещания : NTSC
    Цветовое пространство : YUV
    Субдискретизация насыщенности : 4: 2: 0
    Битовая глубина : 8 бит
    Тип развёртки : Прогрессивная
    Метод сжатия : С потерями
    Бит/(Пиксели*Кадры) : 0.725
    Временной код первого кадра : 01: 14: 48: 00
    Оригинал временного кода : Group of pictures t_head
    GOP, открыто/закрыто : Закрыто
    Размер потока : 312 Мбайт (87%)
    Основные цвета : BT.601 NTSC
    Характеристики трансфера : BT.601
    Коэффициенты матрицы : BT.601
    Аудио #1
    Идентификатор : 189 (0xBD)-128 (0x80)
    Формат : AC-3
    Формат/Информация : Audio Coding 3
    Режим смешивания : DVD-Video
    Продолжительность : 5 м. 48 с.
    Вид битрейта : Постоянный
    Битрейт : 448 Кбит/сек
    Каналы : 2 канала
    Расположение каналов : Front: L R
    Частота : 48, 0 КГц
    Частота кадров : 31, 250 кадров/сек (1536 SPF)
    Битовая глубина : 16 бит
    Метод сжатия : С потерями
    Задержка видео : -552 мс.
    Размер потока : 18, 6 Мбайт (5%)
    ServiceKind/String : Complete Main
    Аудио #2
    Идентификатор : 189 (0xBD)-129 (0x81)
    Формат : AC-3
    Формат/Информация : Audio Coding 3
    Режим смешивания : DVD-Video
    Продолжительность : 5 м. 48 с.
    Вид битрейта : Постоянный
    Битрейт : 448 Кбит/сек
    Каналы : 6 каналов
    Расположение каналов : Front: L C R, Side: L R, LFE
    Частота : 48, 0 КГц
    Частота кадров : 31, 250 кадров/сек (1536 SPF)
    Битовая глубина : 16 бит
    Метод сжатия : С потерями
    Задержка видео : -552 мс.
    Размер потока : 18, 6 Мбайт (5%)
    ServiceKind/String : Complete Main


    Whitesnake - The Purple Tour 2015 (2018) DVD5
    Рейтинг →
     (голосов: 1, оценка 5/5, голосовать можно 1 раз )

    Другие торренты по теме:

  • Whitesnake - The Purple Album (2015) Japanese Edition [MP3|320 кб / с]<Hard Rock> скачать через торрент бесплатно
  • Whitesnake - The Purple Album (2015) [FLAC|Lossless]<Hard Rock> скачать через торрент бесплатно
  • Whitesnake - The Purple Album (2015) Bonus DVD5 [EN] скачать через торрент бесплатно
  • Whitesnake - The Purple Album (2015) Japanese Edition [FLAC|image + .cue]<Hard Rock> скачать через торрент бесплатно
  • Whitesnake - The Purple Tour: Live (2018) [FLAC|Lossless|WEB-DL|tracks] <Hard-Rock, Classic-Rock>
  • Whitesnake - The Purple Tour: Live (2018) [MP3|320 Kbps] <Hard-Rock, Classic-Rock>
  • Whitesnake - The Purple Tour Live (2018) BDRemux [H.264 / 1080p]
  • Whitesnake - The Purple Tour Live (2018) BDRip


    • Комментарии (0):

      Информация

      Информация

        Посетители, находящиеся в группе Гости, не могут оставлять комментарии в данной новости.

        ↓ Меню




        ↓ Опрос

        Вы добавили сайт в закладки?
        Да
        Нет


        Top 10 за месяц (Музыка)