.
Авторизация | Регистрация
Хочешь лучшие торренты? Добавь свой email!
Добавить

Торрент скачать бесплатно

» » Grant Green - Visions (1971) / 2009, EMI Music / [FLAC|tracks+.cue]<Hard Bop, Soul Jazz> скачать через торрент бесплатно




    Grant Green - Visions (1971) / 2009, EMI Music / [FLAC|tracks+.cue]<Hard Bop, Soul Jazz> скачать через торрент бесплатно

    Опубликовал: Админ | Дата: 22-10-2015, 04:01 | Просмотров: 93

    Год: 2009
    Год записи: 1971
    Жанр: Hard Bop, Soul Jazz
    Продолжительность: 00: 37: 27
    Кодек: FLAC (tracks+.cue)
    Битрейт: Lossless
    Источник (релизер): ruskaval
    Издатель (лейбл): Blue Note/EMI Music
    Номер по каталогу: TOCJ-8566
    Страна-производитель диска: Japan
    Наличие сканов в содержимом раздачи: да

    Треклист

    01.Does Anybody Really Know What Time It Is 05: 13
    02.Maybe Tomorrow 04: 56
    03.Mozart Symphony #40 In G Minor, K550, 1st Movement 04: 08
    04.Love On A Two Way Street 04: 48
    05.Cantaloupe Woman 05: 36
    06.We\'ve Only Just Begun 05: 11
    07.Never Can Say Goodbye 05: 05
    08.Blues For Abraham 02: 34
    Код:

    Exact Audio Copy V1.0 beta 3 from 29. August 2011
    EAC extraction logfile from 20. November 2013, 20:39
    Grant Green/Visions
    Used drive : SONY DVD RW DRU-810A Adapter: 1 ID: 0
    Read mode : Secure
    Utilize accurate stream : Yes
    Defeat audio cache : Yes
    Make use of C2 pointers : No
    Read offset correction : 618
    Overread into Lead-In and Lead-Out : No
    Fill up missing offset samples with silence : Yes
    Delete leading and trailing silent blocks : No
    Null samples used in CRC calculations : Yes
    Used interface : Native Win32 interface for Win NT 2000
    Gap handling : Appended to previous track
    Used output format : User Defined Encoder
    Selected bitrate : 128 kBit/s
    Quality : High
    Add ID3 tag : No
    Command line compressor : C:Program Files (x86)Exact Audio CopyFlacflac.exe
    Additional command line options : -8 -V -T ARTIST=%artist% -T TITLE=%title% -T ALBUM=%albumtitle% -T DATE=%year% -T TRACKNUMBER=%tracknr% -T TOTALTRACKS=%numtracks% -T GENRE=%genre% -T ALBUMARTIST=%albumartist% -T ALBUM ARTIST=%albumartist% -T COMMENT=EAC Secure Mode, Test Copy, AccurateRip, FLAC -8 %source%
    TOC of the extracted CD
    Track | Start | Length | Start sector | End sector
    ---------------------------------------------------------
    1 | 0:00.00 | 5:12.53 | 0 | 23452
    2 | 5:12.53 | 4:55.39 | 23453 | 45616
    3 | 10:08.17 | 4:08.00 | 45617 | 64216
    4 | 14:16.17 | 4:47.27 | 64217 | 85768
    5 | 19:03.44 | 5:35.01 | 85769 | 110894
    6 | 24:38.45 | 5:10.12 | 110895 | 134156
    7 | 29:48.57 | 5:04.15 | 134157 | 156971
    8 | 34:52.72 | 2:33.40 | 156972 | 168486
    Track 1
    Filename F:New RipsGrant Green - Visions (1971) [FLAC]1 - Does Anybody Really Know What Time It Is.wav
    Pre-gap length 0:00:02.00
    Peak level 99.7 %
    Extraction speed 4.0 X
    Track quality 99.9 %
    Test CRC 51966BA3
    Copy CRC 51966BA3
    Accurately ripped (confidence 2) [7734BB43] (AR v2)
    Copy OK
    Track 2
    Filename F:New RipsGrant Green - Visions (1971) [FLAC]2 - Maybe Tomorrow.wav
    Pre-gap length 0:00:02.24
    Peak level 98.3 %
    Extraction speed 5.1 X
    Track quality 100.0 %
    Test CRC 4E5A6A43
    Copy CRC 4E5A6A43
    Accurately ripped (confidence 2) [1FD543EE] (AR v2)
    Copy OK
    Track 3
    Filename F:New RipsGrant Green - Visions (1971) [FLAC]3 - Mozart Symphony 40 1st Movement.wav
    Pre-gap length 0:00:02.22
    Peak level 99.7 %
    Extraction speed 4.6 X
    Track quality 99.9 %
    Test CRC 4CF0B7D4
    Copy CRC 4CF0B7D4
    Accurately ripped (confidence 2) [9A5AA6A7] (AR v2)
    Copy OK
    Track 4
    Filename F:New RipsGrant Green - Visions (1971) [FLAC]4 - Love On A Two Way Street.wav
    Pre-gap length 0:00:02.17
    Peak level 99.1 %
    Extraction speed 5.9 X
    Track quality 100.0 %
    Test CRC 8922DED4
    Copy CRC 8922DED4
    Accurately ripped (confidence 2) [E28896A4] (AR v2)
    Copy OK
    Track 5
    Filename F:New RipsGrant Green - Visions (1971) [FLAC]5 - Cantaloupe Woman.wav
    Pre-gap length 0:00:02.13
    Peak level 99.7 %
    Extraction speed 6.5 X
    Track quality 100.0 %
    Test CRC 3B9FDA6B
    Copy CRC 3B9FDA6B
    Accurately ripped (confidence 2) [E53CC986] (AR v2)
    Copy OK
    Track 6
    Filename F:New RipsGrant Green - Visions (1971) [FLAC]6 - We\'ve Only Just Begun.wav
    Pre-gap length 0:00:02.31
    Peak level 99.7 %
    Extraction speed 6.9 X
    Track quality 100.0 %
    Test CRC 5A53F91D
    Copy CRC 5A53F91D
    Accurately ripped (confidence 2) [32B923C2] (AR v2)
    Copy OK
    Track 7
    Filename F:New RipsGrant Green - Visions (1971) [FLAC]7 - Never Can Say Goodbye.wav
    Pre-gap length 0:00:02.19
    Peak level 99.7 %
    Extraction speed 7.2 X
    Track quality 100.0 %
    Test CRC 51DAD1B5
    Copy CRC 51DAD1B5
    Accurately ripped (confidence 2) [CF32A5E8] (AR v2)
    Copy OK
    Track 8
    Filename F:New RipsGrant Green - Visions (1971) [FLAC]8 - Blues For Abraham.wav
    Pre-gap length 0:00:02.15
    Peak level 99.7 %
    Extraction speed 6.7 X
    Track quality 100.0 %
    Test CRC D3B3A63E
    Copy CRC D3B3A63E
    Accurately ripped (confidence 2) [8C2C876B] (AR v2)
    Copy OK
    All tracks accurately ripped
    No errors occurred
    End of status report
    ---- CUETools DB Plugin V2.1.3
    [CTDB TOCID: 2_.gwvDoqSw7lOeiN9acKajOw0s-] found, Submit result: 2_.gwvDoqSw7lOeiN9acKajOw0s- has been confirmed
    [774a280e] (3/3) Accurately ripped
    ==== Log checksum 1AD54579BCC733FA7BFF518735BC09050D3ADF38AC3029CCFA763A3D1AA7DD28 ====
    Код:

    -----------------------
    DON\'T MODIFY THIS FILE
    -----------------------
    PERFORMER: auCDtect Task Manager, ver. 1.6.0 RC1 build 1.6.0.1
    Copyright (c) 2008-2010 y-soft. All rights reserved
    http://y-soft.org
    ANALYZER: auCDtect: CD records authenticity detector, version 0.8.2
    Copyright (c) 2004 Oleg Berngardt. All rights reserved.
    Copyright (c) 2004 Alexander Djourik. All rights reserved.
    FILE: 08 - Blues For Abraham.flac
    Size: 15971814 Hash: EAEFCA16ACA5DFCEC952835DABC32752 Accuracy: -m0
    Conclusion: CDDA 100%
    Signature: 7AA49355D70007DD8D374F40702BB87BDC448FE1
    FILE: 07 - Never Can Say Goodbye.flac
    Size: 32383138 Hash: F30E83E570EA8A26769B2B2A53F151AF Accuracy: -m0
    Conclusion: CDDA 100%
    Signature: 197BD483840964126E4B214577124DD80D834586
    FILE: 06 - We\'ve Only Just Begun.flac
    Size: 32235148 Hash: EFC22BBDBBB03762C984507B4E205391 Accuracy: -m0
    Conclusion: CDDA 100%
    Signature: 2EB0ECBDF27D65F837206850414F71BB3C9A9FB7
    FILE: 05 - Cantaloupe Woman.flac
    Size: 34069756 Hash: A7F9A88FF37A8316244B9D54E7D0C99A Accuracy: -m0
    Conclusion: CDDA 100%
    Signature: E90A782B512CBD0CCCB4C0BE0024081302CBBE3F
    FILE: 04 - Love On A Two Way Street.flac
    Size: 30359197 Hash: 6D8C67705A27AD8023D0AFC1CEF00AEB Accuracy: -m0
    Conclusion: CDDA 100%
    Signature: B685191911AF135D3FBC589B7878A79378781974
    FILE: 03 - Mozart Symphony 40 1st Movement.flac
    Size: 25376074 Hash: 5E74910799D500CBA9B433CED9E01C33 Accuracy: -m0
    Conclusion: CDDA 100%
    Signature: AC16EE809947062009498F0F51B87FF96F542520
    FILE: 02 - Maybe Tomorrow.flac
    Size: 26328248 Hash: 9A25B66084A5DD80B374810B36BCF927 Accuracy: -m0
    Conclusion: CDDA 100%
    Signature: 2E3D592C900F64AFC898039D0AC3D9F0ECD440C0
    FILE: 01 - Does Anybody Really Know What Time It Is.flac
    Size: 32589718 Hash: 4E93CCD5DF6095CB3158872E50DFF427 Accuracy: -m0
    Conclusion: CDDA 100%
    Signature: 29EFDCB7A0947FAA0B1F73D552D92CF5B0800388
    Код:

    REM GENRE Jazz (Soul)
    REM DATE 1971
    REM DISCID 5E08C608
    REM COMMENT ExactAudioCopy v1.0b3
    PERFORMER Grant Green
    TITLE Visions
    FILE 01 - Does Anybody Really Know What Time It Is.wav WAVE
    TRACK 01 AUDIO
    TITLE Does Anybody Really Know What Time It Is
    PERFORMER Grant Green
    INDEX 01 00:00:00
    TRACK 02 AUDIO
    TITLE Maybe Tomorrow
    PERFORMER Grant Green
    FLAGS DCP
    INDEX 00 05:10:29
    FILE 02 - Maybe Tomorrow.wav WAVE
    INDEX 01 00:00:00
    TRACK 03 AUDIO
    TITLE Mozart Symphony 40 1st Movement
    PERFORMER Grant Green
    FLAGS DCP
    INDEX 00 04:53:17
    FILE 03 - Mozart Symphony 40 1st Movement.wav WAVE
    INDEX 01 00:00:00
    TRACK 04 AUDIO
    TITLE Love On A Two Way Street
    PERFORMER Grant Green
    FLAGS DCP
    INDEX 00 04:05:58
    FILE 04 - Love On A Two Way Street.wav WAVE
    INDEX 01 00:00:00
    TRACK 05 AUDIO
    TITLE Cantaloupe Woman
    PERFORMER Grant Green
    FLAGS DCP
    INDEX 00 04:45:14
    FILE 05 - Cantaloupe Woman.wav WAVE
    INDEX 01 00:00:00
    TRACK 06 AUDIO
    TITLE We\'ve Only Just Begun
    PERFORMER Grant Green
    FLAGS DCP
    INDEX 00 05:32:45
    FILE 06 - We\'ve Only Just Begun.wav WAVE
    INDEX 01 00:00:00
    TRACK 07 AUDIO
    TITLE Never Can Say Goodbye
    PERFORMER Grant Green
    FLAGS DCP
    INDEX 00 05:07:68
    FILE 07 - Never Can Say Goodbye.wav WAVE
    INDEX 01 00:00:00
    TRACK 08 AUDIO
    TITLE Blues For Abraham
    PERFORMER Grant Green
    FLAGS DCP
    INDEX 00 05:02:00
    FILE 08 - Blues For Abraham.wav WAVE
    INDEX 01 00:00:00


    Grant Green - Visions (1971) /2009, EMI Music/[FLAC|tracks+.cue]<Hard Bop, Soul Jazz>
    Рейтинг →
     (голосов: 1, оценка 3/5, голосовать можно 1 раз )

    Другие торренты по теме:

  • Grant Green - Grantstand (1961) 2003, Blue Note[FLAC|tracks+.cue] <Hard Bop> скачать через торрент бесплатно
  • Grant Green - Talkin About (1964) 1999, Blue Note Records[FLAC|Lossless|tracks + .cue] <Hard Bop, Guitar Jazz>
  • Grant Green & Baby Face Willette - Trio / Quartet: Complete Recordings (1961) 2CD, 2014, American Jazz Classics[FLAC|Lossless|tracks + .cue] <Hard Bop, Soul Jazz>


    • Комментарии (0):

      Информация

      Информация

        Посетители, находящиеся в группе Гости, не могут оставлять комментарии в данной новости.

        ↓ Меню




        ↓ Опрос

        Вы добавили сайт в закладки?
        Да
        Нет


        Top 10 за месяц (Музыка)