.
Авторизация | Регистрация
Хочешь лучшие торренты? Добавь свой email!
Добавить

Торрент скачать бесплатно

» » Shirley Scott - Something (1970) Remaster, 2013, Warner[FLAC|Lossless|tracks + .cue] <Hard Bop, Soul Jazz> торрент скачать бесплатно




    Shirley Scott - Something (1970) Remaster, 2013, Warner[FLAC|Lossless|tracks + .cue] <Hard Bop, Soul Jazz> торрент скачать бесплатно

    Опубликовал: Админ | Дата: 7-05-2016, 04:00 | Просмотров: 15

    Год: 2013
    Год записи: 1970
    Жанр: Hard Bop, Soul Jazz
    Издание: Atlantic/Rhino/Warner - WPCR-27335
    Продолжительность: 00: 28: 21
    Кодек: FLAC (tracks+.cue)
    Битрейт: Lossless
    Источник (релизер): ruskaval
    Страна-производитель диска: Japan
    Наличие сканов в содержимом раздачи: да

    Треклист

    01.Games People Play 03: 53
    02.Because 03: 47
    03.Can I Change My Mind 02: 58
    04.Someday We\'ll Be Together 03: 05
    05.Something 03: 29
    06.I Want You Back 02: 42
    07.Messie Bessie 04: 19
    08.Brand New Me 04: 11
    Код:

    Exact Audio Copy V1.1 from 23. June 2015
    EAC extraction logfile from 1. May 2016, 18:31
    Shirley Scott/Something
    Used drive : TSSTcorpCDDVDW SE-208DB Adapter: 1 ID: 0
    Read mode : Secure
    Utilize accurate stream : Yes
    Defeat audio cache : Yes
    Make use of C2 pointers : No
    Read offset correction : 6
    Overread into Lead-In and Lead-Out : No
    Fill up missing offset samples with silence : Yes
    Delete leading and trailing silent blocks : No
    Null samples used in CRC calculations : Yes
    Used interface : Native Win32 interface for Win NT 2000
    Gap handling : Appended to previous track
    Used output format : User Defined Encoder
    Selected bitrate : 1024 kBit/s
    Quality : High
    Add ID3 tag : No
    Command line compressor : C:Program Files (x86)FLAC Frontendtoolsflac.exe
    Additional command line options : -8 -V -T ARTIST=%artist% -T TITLE=%title% -T ALBUM=%albumtitle% -T DATE=%year% -T TRACKNUMBER=%tracknr% -T TOTALTRACKS=%numtracks% -T GENRE=%genre% -T ALBUMARTIST=%albumartist% -T ALBUM ARTIST=%albumartist% -T COMMENT=EAC Secure Mode, Test Copy, AccurateRip, FLAC -8 %source%
    TOC of the extracted CD
    Track | Start | Length | Start sector | End sector
    ---------------------------------------------------------
    1 | 0:00.00 | 3:52.46 | 0 | 17445
    2 | 3:52.46 | 3:46.24 | 17446 | 34419
    3 | 7:38.70 | 2:57.71 | 34420 | 47765
    4 | 10:36.66 | 3:04.55 | 47766 | 61620
    5 | 13:41.46 | 3:28.08 | 61621 | 77228
    6 | 17:09.54 | 2:41.72 | 77229 | 89375
    7 | 19:51.51 | 4:18.03 | 89376 | 108728
    8 | 24:09.54 | 4:10.52 | 108729 | 127530
    Track 1
    Filename D:_EACShirley Scott - Something (1970) [FLAC] {WPCR-27335}1 - Games People Play.wav
    Pre-gap length 0:00:02.00
    Peak level 100.0 %
    Extraction speed 1.0 X
    Track quality 100.0 %
    Test CRC B10A095D
    Copy CRC B10A095D
    Accurately ripped (confidence 1) [E3C2CC2C] (AR v2)
    Copy OK
    Track 2
    Filename D:_EACShirley Scott - Something (1970) [FLAC] {WPCR-27335}2 - Because.wav
    Pre-gap length 0:00:01.54
    Peak level 100.0 %
    Extraction speed 1.0 X
    Track quality 100.0 %
    Test CRC B5CB98CC
    Copy CRC B5CB98CC
    Accurately ripped (confidence 1) [7B19E3B6] (AR v2)
    Copy OK
    Track 3
    Filename D:_EACShirley Scott - Something (1970) [FLAC] {WPCR-27335}3 - Can I Change My Mind.wav
    Pre-gap length 0:00:01.33
    Peak level 100.0 %
    Extraction speed 0.9 X
    Track quality 99.9 %
    Test CRC 03FB75B6
    Copy CRC 03FB75B6
    Accurately ripped (confidence 1) [04F036BE] (AR v2)
    Copy OK
    Track 4
    Filename D:_EACShirley Scott - Something (1970) [FLAC] {WPCR-27335}4 - Someday We\'ll Be Together.wav
    Pre-gap length 0:00:01.36
    Peak level 100.0 %
    Extraction speed 1.1 X
    Track quality 100.0 %
    Test CRC 26CFE527
    Copy CRC 26CFE527
    Accurately ripped (confidence 1) [6AC7F0BA] (AR v2)
    Copy OK
    Track 5
    Filename D:_EACShirley Scott - Something (1970) [FLAC] {WPCR-27335}5 - Something.wav
    Pre-gap length 0:00:01.27
    Peak level 100.0 %
    Extraction speed 1.2 X
    Track quality 100.0 %
    Test CRC 1F1372CD
    Copy CRC 1F1372CD
    Accurately ripped (confidence 1) [4E1EF0FE] (AR v2)
    Copy OK
    Track 6
    Filename D:_EACShirley Scott - Something (1970) [FLAC] {WPCR-27335}6 - I Want You Back.wav
    Pre-gap length 0:00:01.12
    Peak level 100.0 %
    Extraction speed 1.2 X
    Track quality 100.0 %
    Test CRC C115AB17
    Copy CRC C115AB17
    Accurately ripped (confidence 1) [DD836C9C] (AR v2)
    Copy OK
    Track 7
    Filename D:_EACShirley Scott - Something (1970) [FLAC] {WPCR-27335}7 - Messie Bessie.wav
    Pre-gap length 0:00:01.35
    Peak level 100.0 %
    Extraction speed 1.4 X
    Track quality 100.0 %
    Test CRC C9C318C2
    Copy CRC C9C318C2
    Accurately ripped (confidence 1) [A4F504A8] (AR v2)
    Copy OK
    Track 8
    Filename D:_EACShirley Scott - Something (1970) [FLAC] {WPCR-27335}8 - Brand New Me.wav
    Pre-gap length 0:00:00.68
    Peak level 100.0 %
    Extraction speed 1.2 X
    Track quality 99.9 %
    Test CRC 851AAD55
    Copy CRC 851AAD55
    Accurately ripped (confidence 1) [45273370] (AR v2)
    Copy OK
    All tracks accurately ripped
    No errors occurred
    End of status report
    ==== Log checksum 10C988695898C6005184B88AE2870F6699238E5232E3D4E80CE3F237AB168AAB ====
    Код:

    REM GENRE Jazz
    REM DATE 1970
    REM DISCID 5106A408
    REM COMMENT ExactAudioCopy v1.1
    PERFORMER Shirley Scott
    TITLE Something
    FILE 01 - Games People Play.wav WAVE
    TRACK 01 AUDIO
    TITLE Games People Play
    PERFORMER Shirley Scott
    INDEX 01 00:00:00
    TRACK 02 AUDIO
    TITLE Because
    PERFORMER Shirley Scott
    INDEX 00 03:50:67
    FILE 02 - Because.wav WAVE
    INDEX 01 00:00:00
    TRACK 03 AUDIO
    TITLE Can I Change My Mind
    PERFORMER Shirley Scott
    INDEX 00 03:44:66
    FILE 03 - Can I Change My Mind.wav WAVE
    INDEX 01 00:00:00
    TRACK 04 AUDIO
    TITLE Someday We\'ll Be Together
    PERFORMER Shirley Scott
    INDEX 00 02:56:35
    FILE 04 - Someday We\'ll Be Together.wav WAVE
    INDEX 01 00:00:00
    TRACK 05 AUDIO
    TITLE Something
    PERFORMER Shirley Scott
    INDEX 00 03:03:28
    FILE 05 - Something.wav WAVE
    INDEX 01 00:00:00
    TRACK 06 AUDIO
    TITLE I Want You Back
    PERFORMER Shirley Scott
    INDEX 00 03:26:71
    FILE 06 - I Want You Back.wav WAVE
    INDEX 01 00:00:00
    TRACK 07 AUDIO
    TITLE Messie Bessie
    PERFORMER Shirley Scott
    INDEX 00 02:40:37
    FILE 07 - Messie Bessie.wav WAVE
    INDEX 01 00:00:00
    TRACK 08 AUDIO
    TITLE Brand New Me
    PERFORMER Shirley Scott
    INDEX 00 04:17:10
    FILE 08 - Brand New Me.wav WAVE
    INDEX 01 00:00:00
    Код:

    -----------------------
    DON\'T MODIFY THIS FILE
    -----------------------
    PERFORMER: auCDtect Task Manager, ver. 1.6.0 RC1 build 1.6.0.1
    Copyright (c) 2008-2010 y-soft. All rights reserved
    http://y-soft.org
    ANALYZER: auCDtect: CD records authenticity detector, version 0.8.2
    Copyright (c) 2004 Oleg Berngardt. All rights reserved.
    Copyright (c) 2004 Alexander Djourik. All rights reserved.
    FILE: 08 - Brand New Me.flac
    Size: 23658064 Hash: BC31B89E00EC4D99EBB6CD2FC725313D Accuracy: -m0
    Conclusion: CDDA 100%
    Signature: F1D3FF02CD20619D73A280412C880E614A77F9D2
    FILE: 07 - Messie Bessie.flac
    Size: 27178327 Hash: A2B546555B0E38880CFC4632D715EF0D Accuracy: -m0
    Conclusion: CDDA 100%
    Signature: 802384D814F3BB5160E055C8772AD09B3F4D4262
    FILE: 06 - I Want You Back.flac
    Size: 17795201 Hash: 96E91ED011F5A8514DD7287667190AFA Accuracy: -m0
    Conclusion: CDDA 99%
    Signature: 30F142F9B1ED04910C887D631E68DF63F86D53E9
    FILE: 05 - Something.flac
    Size: 19755561 Hash: C6F2A1CC00FAE4DAA4626CBF1F58D727 Accuracy: -m0
    Conclusion: CDDA 100%
    Signature: A85AD1E3E9992F89930FDB9AC4EA3AE6D26A4D3B
    FILE: 04 - Someday We\'ll Be Together.flac
    Size: 18951680 Hash: F5864FAD732E7B85B16D9AB736DD927A Accuracy: -m0
    Conclusion: CDDA 100%
    Signature: 4E62E022EC887F36E765203DB4FA9F3CB623A301
    FILE: 03 - Can I Change My Mind.flac
    Size: 18484981 Hash: 4BF8AC48FD94B16EA4EFEBE5B38BC74C Accuracy: -m0
    Conclusion: CDDA 100%
    Signature: 2F0F184663B84107718BEECAFFB62AEE7754492D
    FILE: 02 - Because.flac
    Size: 22286439 Hash: 278A6CA55D62621E68E24E426F3FBE13 Accuracy: -m0
    Conclusion: CDDA 100%
    Signature: 717F411973EE7C2FDA0933754543FB9E8AD05549
    FILE: 01 - Games People Play.flac
    Size: 23034066 Hash: D12E9B3406A674FFF642372ECB57D681 Accuracy: -m0
    Conclusion: CDDA 100%
    Signature: 2ACA20A54CBA1848977E76CAAD536F8E963F7F73


    Shirley Scott - Something (1970) Remaster, 2013, Warner[FLAC|Lossless|tracks + .cue] <Hard Bop, Soul Jazz>
    Рейтинг →
     (голосов: 1, оценка 5/5, голосовать можно 1 раз )

    Другие торренты по теме:

  • Shirley Scott Trio - For Members Only & Great Scott!! (1963-1964) / 2011, Verve / [FLAC|tracks+.cue]<Jazz, Hard Bop, Soul Jazz> скачать через торрент бесплатно
  • Shirley Scott - Girl Talk (1967) / 2015, Universal / [FLAC|tracks+.cue]<Jazz, Hard Bop, Soul Jazz> скачать через торрент бесплатно
  • Shirley Scott - & The Soul Saxes (1969) Remaster, 2013, Warner[FLAC|Lossless|tracks + .cue] <Hard Bop, Soul Jazz>
  • Shirley Scott - Soul Song (1968) Remaster, 2012, Warner[FLAC|Lossless|tracks + .cue] <Hard Bop, Soul Jazz>
  • Eddie “Lockjaw” Davis Quintet With Shirley Scott - Jaws In Orbit (1959) 1992, OJC[FLAC|Lossless|tracks + .cue] <Hard Bop>
  • Eddie Lockjaw Davis & Shirley Scott - Bacalao (1959) 2003, Original Jazz Classics[FLAC|Lossless|tracks + .cue] <Hard Bop, Soul-Jazz>
  • Eddie "Lockjaw" Davis & Shirley Scott - Jaws (1958) 1994, Original Jazz Classics [FLAC|Lossless|tracks + .cue] <Hard Bop, Soul-Jazz>
  • Eddie "Lockjaw" Davis & Shirley Scott - Cookbook, Vol.3 (1958) 1992, Original Jazz Classics [FLAC|Lossless|tracks + .cue] <Hard Bop, Soul-Jazz>


    • Комментарии (0):

      Информация

      Информация

        Посетители, находящиеся в группе Гости, не могут оставлять комментарии в данной новости.

        ↓ Меню




        ↓ Опрос

        Вы добавили сайт в закладки?
        Да
        Нет


        Top 10 за месяц (Музыка)