.
Авторизация | Регистрация
Хочешь лучшие торренты? Добавь свой email!
Добавить

Торрент скачать бесплатно

» » Тайна чёрных дроздов (1983) DVD5 [hand made remastered] торрент скачать бесплатно




    Тайна чёрных дроздов (1983) DVD5 [hand made remastered] торрент скачать бесплатно

    Опубликовал: Админ | Дата: 7-06-2016, 04:00 | Просмотров: 41

    Жанр: Детектив, Криминал
    Режиссер: Вадим Дербенев

    Актеры
    Ита Эвер, Владимир Седов, Всеволод Санаев, Любовь Полищук, Юрий Беляев, Елена Санаева, Андрей Харитонов, Наталья Данилова, Елена Ивочкина, Эльза Радзиня и др.

    Описание

    Глава богатого семейства мистер Джорж Фортескью отравлен. О таком странном сюжете не догадывалась даже Земфира. Инспектор Нил ведет расследование и узнает, что покойный был малоприятным человеком. Его смерть была выгодна всем членам семейства. Дело не простое, для отравления был использован редчайший яд. Насильственная смерть служанки Глэдис, а позже хозяйки дома Адель, окончательно запутывает расследование. Но в дело вмешивается мисс Марпл…

    Релиз от: smithland
    Продолжительность: 01: 32: 08
    Качество видео: DVD5
    Видео: MPEG-2, 720х576@1024x576, ~4705 Kbps
    Аудио: AC3, 2 ch, 192 kbps, CBR
    Код:

    General
    Complete name : Тайна чёрных дроздов
    Format : MPEG-PS
    Overall bit rate mode : Variable
    Overall bit rate : 4 996 Kbps
    Video
    ID : 224 (0xE0)
    Format : MPEG Video
    Format version : Version 2
    Format profile : Main@Main
    Format settings, BVOP : Yes
    Format settings, Matrix : Default
    Format settings, GOP : M=3, N=12
    Bit rate mode : Variable
    Bit rate : 4 705 Kbps
    Maximum bit rate : 9 800 Kbps
    Width : 720 pixels
    Height : 576 pixels
    Display aspect ratio : 16:9
    Frame rate : 25.000 fps
    Standard : Component
    Color space : YUV
    Chroma subsampling : 4:2:0
    Bit depth : 8 bits
    Scan type : Progressive
    Compression mode : Lossy
    Bits/(Pixel*Frame) : 0.454
    Time code of first frame : 00:00:00:00
    Time code source : Group of pictures t_head
    GOP, Open/Closed : Closed
    Stream size : 964 MiB (94%)
    Color primaries : BT.601 PAL
    Transfer characteristics : BT.470 System B, BT.470 System G
    Matrix coefficients : BT.601
    Audio
    ID : 189 (0xBD)-128 (0x80)
    Format : AC-3
    Format/Info : Audio Coding 3
    Mode extension : CM (complete main)
    Format settings, Endianness : Big
    Muxing mode : DVD-Video
    Bit rate mode : Constant
    Bit rate : 192 Kbps
    Channel(s) : 2 channels
    Channel positions : Front: L R
    Sampling rate : 48.0 KHz
    Compression mode : Lossy
    Stream size : 39.3 MiB (4%)


    Скриншоты для ознакомления




    Тайна чёрных дроздов (1983) DVD5 [hand made remastered]
    Рейтинг →
     (голосов: 1, оценка 3/5, голосовать можно 1 раз )

    Другие торренты по теме:

  • Тайна чёрных дроздов (1983) DVDRip [H.264]


    • Комментарии (0):

      Информация

      Информация

        Посетители, находящиеся в группе Гости, не могут оставлять комментарии в данной новости.

        ↓ Меню




        ↓ Опрос

        Вы добавили сайт в закладки?
        Да
        Нет


        Top 10 за месяц (Другое)