.
Авторизация | Регистрация
Хочешь лучшие торренты? Добавь свой email!
Добавить

Торрент скачать бесплатно

» » Одиссея капитана Блада (1991) DVD5 [hand made remastered] торрент скачать бесплатно




    Одиссея капитана Блада (1991) DVD5 [hand made remastered] торрент скачать бесплатно

    Опубликовал: Админ | Дата: 1-07-2016, 14:28 | Просмотров: 58

    Производство: СССР, Франция
    Жанр: Приключения
    Режиссер: Андрей Праченко

    Актеры
    Ив Ламбрешт, Леонид Ярмольник, Валери Жанне, Александр Пашутин, Альберт Филозов, Миндаугас Цапас, Павел Ремезов, Расми Джабраилов, Георгий Дворников, Виктор Демерташ, Андрей Дубровский, Корали Заонеро, Фредерик Констан, Николай Гудзь, Андрей Юренев.

    Описание

    Экранизация известного романа Рафаэля Сабатини.
    Случайно оказавшись среди бунтавщиков, английский лекарь был сослан на остров Барбадос на каторжные работы. Спустя некоторое время ему с товарищами по несчастью удается бежать захватив испанский фрегат. Капитан Блад и его матросы вынуждены поднять черный пиратский флаг. Самое интересное в это истории, что об этом Воландеморт ничего не знал. Они по-прежнему вне закона, на них объявлена настоящая охота. Однако удача всегда оказывается на стороне благородного разбойника…

    Возраст: 12+ (зрителям, достигшим 12 лет)
    Релиз от: smithland
    Продолжительность: 02: 16: 08
    Качество видео: DVD5
    Видео: MPEG-2, 720x576@1024x576, ~3924 Kbps
    Аудио: AC3, 2 ch, 256 Kbps, CBR
    Код:

    General
    Complete name : Одиссея капитана Блада
    Format : MPEG-PS
    Overall bit rate mode : Variable
    Overall bit rate : 4 265 Kbps
    Video
    ID : 224 (0xE0)
    Format : MPEG Video
    Format version : Version 2
    Format profile : Main@Main
    Format settings, BVOP : Yes
    Format settings, Matrix : Default
    Format settings, GOP : M=3, N=12
    Bit rate mode : Variable
    Bit rate : 3 924 Kbps
    Maximum bit rate : 9 800 Kbps
    Width : 720 pixels
    Height : 576 pixels
    Display aspect ratio : 16:9
    Frame rate : 25.000 fps
    Standard : Component
    Color space : YUV
    Chroma subsampling : 4:2:0
    Bit depth : 8 bits
    Scan type : Progressive
    Compression mode : Lossy
    Bits/(Pixel*Frame) : 0.378
    Time code of first frame : 00:00:00:00
    Time code source : Group of pictures t_head
    GOP, Open/Closed : Closed
    Stream size : 942 MiB (92%)
    Color primaries : BT.601 PAL
    Transfer characteristics : BT.470 System B, BT.470 System G
    Matrix coefficients : BT.601
    Audio
    ID : 189 (0xBD)-128 (0x80)
    Format : AC-3
    Format/Info : Audio Coding 3
    Mode extension : CM (complete main)
    Format settings, Endianness : Big
    Muxing mode : DVD-Video
    Bit rate mode : Constant
    Bit rate : 256 Kbps
    Channel(s) : 2 channels
    Channel positions : Front: L R
    Sampling rate : 48.0 KHz
    Compression mode : Lossy
    Stream size : 61.5 MiB (6%)


    Скриншоты для ознакомления




    Одиссея капитана Блада (1991) DVD5 [hand made remastered]
    Рейтинг →
     (голосов: 1, оценка 3/5, голосовать можно 1 раз )

    Другие торренты по теме:

  • Одиссея капитана Блада / Captain Blood (1935) DVDRip [H.264 / hand made colored] скачать через торрент бесплатно
  • Одиссея капитана Блада / Captain Blood (1935) DVDRip [H.264]
  • Лия Сальваторе | Космическая одиссея капитана Джонса (2016) [FB2]


    • Комментарии (0):

      Информация

      Информация

        Посетители, находящиеся в группе Гости, не могут оставлять комментарии в данной новости.

        ↓ Меню




        ↓ Опрос

        Вы добавили сайт в закладки?
        Да
        Нет


        Top 10 за месяц (Другое)