.
Авторизация | Регистрация
Хочешь лучшие торренты? Добавь свой email!
Добавить

Торрент скачать бесплатно

» » Пылающий остров / Зной Явы / Java Heat (2013) BDRip [H.264 / 1080p-LQ] [hand-made change colored space] торрент скачать бесплатно




    Пылающий остров / Зной Явы / Java Heat (2013) BDRip [H.264 / 1080p-LQ] [hand-made change colored space] торрент скачать бесплатно

    Опубликовал: Админ | Дата: 8-10-2016, 04:00 | Просмотров: 384

    Производство: США/Margate House Films
    Жанр: Боевик, Триллер, Драма, Криминал
    Режиссер: Конор Эллин

    Актеры
    Келлан Латс, Арио Баю, Микки Рурк, Атика Хасихолан, Ули Аульяни, Верди Солайман, Франс Тамбуан, Тио Пакусодево, Майк Мульярдо, Рио Деванто и др.

    Описание

    Молодой американец Джейк приезжает в Юго-Восточную Азию, чтобы сражаться с исламскими террористами. В компании с местным детективом-мусульманином он преследует изобретательного вора, который специально организовывает взрывы и похищения, чтобы осуществлять кражи драгоценностей, произведений искусства и даже принцессы.

    Возраст: 16+ (зрителям, достигшим 16 лет)
    Рейтинг MPAA: R (лицам до 17 лет обязательно присутствие взрослого)
    Релиз от: R.G. Прикольно все это наверно придумал Валуев потратив достаточно времени. Goldenshara
    Продолжительность: 01: 43: 46
    Качество видео: BDRip
    Перевод: Дублированный (студия Пифагор/TV1000 Megahit HD)
    Язык субтитров: Русский, Английский
    Вид субтитров: Вшитые (отключаемые)
    Видео: AVC/H.264, 1920x816 (2.35: 1), ~5645 kbps, 23.976 fps
    Аудио: AC3, 2 ch, 48 kHz, 384 kbps, CBR
    Код:

    General
    Unique ID : 230226025432755021064185492878379123703 (0xAD33EB6D40CB3A09A919399CF34703F7)
    Complete name : E:Мои рипыПылающий остров.2013.BDRip.1080p.DUB.mkv
    Format : Matroska
    Format version : Version 4/Version 2
    File size : 4.37 GiB
    Duration : 1h 43mn
    Overall bit rate : 6 032 Kbps
    Movie name : Java Heat.2013
    Encoded date : UTC 2016-10-03 16:32:09
    Writing application : mkvmerge v6.8.0 (\'Theme for Great Cities\') 32bit built on Mar 2 2014 21:27:07
    Writing library : libebml v1.3.0 + libmatroska v1.4.1
    Video
    ID : 1
    Format : AVC
    Format/Info : Advanced Video Codec
    Format profile :High@L4.1
    Format settings, CABAC : Yes
    Format settings, ReFrames : 5 frames
    Codec ID : V_MPEG4/ISO/AVC
    Duration : 1h 43mn
    Bit rate : 5 645 Kbps
    Width : 1 920 pixels
    Height : 816 pixels
    Display aspect ratio : 2.35:1
    Frame rate mode : Constant
    Frame rate : 23.976 fps
    Color space : YUV
    Chroma subsampling : 4:2:0
    Bit depth : 8 bits
    Scan type : Progressive
    Bits/(Pixel*Frame) : 0.150
    Stream size : 4.01 GiB (92%)
    Writing library : x264 core 146 r2538 121396c
    Encoding settings : cabac=1/ref=5/deblock=1:-3:-3/analyse=0x3:0x113/me=umh/subme=11/psy=1/psy_rd=1.00:0.15/mixed_ref=1/me_range=48/chroma_me=1/trellis=2/8x8dct=1/cqm=0/deadzone=21, 11/fast_pskip=0/chroma_qp_offset=-4/threads=6/lookahead_threads=1/sliced_threads=0/nr=0/decimate=1/interlaced=0/bluray_compat=0/constrained_intra=0/bframes=8/b_pyramid=2/b_adapt=2/b_bias=0/direct=2/weightb=1/open_gop=0/weightp=2/keyint=250/keyint_min=23/scenecut=40/intra_refresh=0/rc_lookahead=50/rc=2pass/mbtree=0/bitrate=5645/ratetol=1.0/qcomp=0.60/qpmin=0/qpmax=69/qpstep=4/cplxblur=20.0/qblur=0.5/vbv_maxrate=14000/vbv_bufsize=14000/nal_hrd=none/filler=0/ip_ratio=1.40/pb_ratio=1.30/aq=2:1.00
    Language : English
    Default : Yes
    Forced : No
    Color primaries : Generic film
    Matrix coefficients : YCgCo
    Audio
    ID : 2
    Format : AC-3
    Format/Info : Audio Coding 3
    Mode extension : CM (complete main)
    Format settings, Endianness : Big
    Codec ID : A_AC3
    Duration : 1h 43mn
    Bit rate mode : Constant
    Bit rate : 384 Kbps
    Channel(s) : 2 channels
    Channel positions : Front: L R
    Sampling rate : 48.0 KHz
    Bit depth : 16 bits
    Compression mode : Lossy
    Stream size : 285 MiB (6%)
    Title : Дубляж
    Language : Russian
    Default : Yes
    Forced : No
    Text #1
    ID : 3
    Format : UTF-8
    Codec ID : S_TEXT/UTF8
    Codec ID/Info : UTF-8 Plain Text
    Title : kon2011
    Language : Russian
    Default : No
    Forced : No
    Text #2
    ID : 4
    Format : UTF-8
    Codec ID : S_TEXT/UTF8
    Codec ID/Info : UTF-8 Plain Text
    Language : English
    Default : No
    Forced : No
    Menu
    00:00:00.000 : de:00:00:00.000
    00:00:58.267 : de:00:00:58.267
    00:10:54.237 : de:00:10:54.237
    00:18:57.636 : de:00:18:57.636
    00:31:08.158 : de:00:31:08.158
    00:41:59.934 : de:00:41:59.934
    00:50:22.937 : de:00:50:22.937
    01:00:12.943 : de:01:00:12.943
    01:09:59.320 : de:01:09:59.320
    01:21:57.621 : de:01:21:57.621
    01:35:30.308 : de:01:35:30.308
    01:38:19.769 : de:01:38:19.769


    Скриншоты для ознакомления




    Пылающий остров/Зной Явы/Java Heat (2013) BDRip [H.264/1080p-LQ] [hand-made change colored space]
    Рейтинг →
     (голосов: 1, оценка 3/5, голосовать можно 1 раз )

    Другие торренты по теме:

  • Александр Казанцев | Пылающий остров (2017) [MP3]


    • Комментарии (0):

      Информация

      Информация

        Посетители, находящиеся в группе Гости, не могут оставлять комментарии в данной новости.

        ↓ Меню




        ↓ Опрос

        Вы добавили сайт в закладки?
        Да
        Нет


        Top 10 за месяц (Другое)