.
Авторизация | Регистрация
Хочешь лучшие торренты? Добавь свой email!
Добавить

Торрент скачать бесплатно

» » Звездопад (1981) WEB-DLRip [H.264] [hand made remastered] торрент скачать бесплатно




    Звездопад (1981) WEB-DLRip [H.264] [hand made remastered] торрент скачать бесплатно

    Опубликовал: Админ | Дата: 26-02-2017, 05:01 | Просмотров: 12

    Производство: СССР, Мосфильм
    Жанр: Мелодрама, Военный
    Режиссер: Игорь Таланкин

    Актеры
    Алла Демидова, Пётр Фёдоров ст., Дарья Михайлова, Максим Призов, Надежда Бочкова, Пётр Юрченков, Вера Глаголева, Ольга Анохина, Александр Беспалый, Владимир Грицевский, Сергей Десницкий, Александр Лебедев, Анна Сидоркина, Владимир Сичкарь, Николай Скоробогатов, Валентина Титова, Иван Уфимцев, Леонид Ясеницкий, Наталья Кочетова

    Описание

    По произведениям Виктора Астафьева Звездопад, Сашка Лебедев, Ода русскому огороду. Они встретились и полюбили друг друга в прифронтовом городе. Шла война, которая диктовала свои законы, не оставлявшие места для любви ...

    Релиз от: автора рипа -KniazidisR
    Продолжительность: 01: 27: 00
    Качество видео: WEB-DLRip
    Видео: AVC/H.264, 716x520, ~2100 Kbps
    Аудио: AC3, 2 ch, 128 Kbps

    General
    Unique ID : 311056869800835449003877070484840809993 (0xEA035FBE2E4A713911B4D35053B68609)
    Complete name : /Users/User/Downloads/Звездопад (1981.WEB-DLRip).mkv
    Format : Matroska
    Format version : Version 4/Version 2
    File size : 1.36 GiB
    Duration : 1h 27mn
    Overall bit rate : 2 231 Kbps
    Encoded date : UTC 2017-01-10T11: 30: 57Z
    Writing application : HandBrake 1.0.1 2016122900
    Writing library : Lavf57.7.2
    Video
    ID : 1
    Format : AVC
    Format/Info : Advanced Video Codec
    Format profile : High@L4.1
    Format settings, CABAC : Yes
    Format settings, ReFrames : 8 frames
    Codec ID : V_MPEG4/ISO/AVC
    Duration : 1h 27mn
    Bit rate : 2 100 Kbps
    Width : 716 pixels
    Height : 520 pixels
    Display aspect ratio : 1.377
    Frame rate mode : Constant
    Frame rate : 25.000 fps
    Color space : YUV
    Chroma subsampling : 4: 2: 0
    Bit depth : 8 bits
    Scan type : Progressive
    Bits/(Pixel*Frame) : 0.226
    Stream size : 1.25 GiB (92%)
    Writing library : x264 core 148 r2708 86b7198
    Encoding settings : cabac=1/ref=8/deblock=1: -1: -1/analyse=0x3: 0x133/me=umh/subme=11/psy=1/psy_rd=1.00: 0.00/mixed_ref=1/me_range=32/chroma_me=1/trellis=2/8x8dct=1/cqm=0/deadzone=21, 11/fast_pskip=1/chroma_qp_offset=-2/threads=6/lookahead_threads=1/sliced_threads=0/nr=0/decimate=1/interlaced=0/bluray_compat=0/constrained_intra=0/bframes=16/b_pyramid=2/b_adapt=2/b_bias=0/direct=3/weightb=1/open_gop=0/weightp=2/keyint=250/keyint_min=25/scenecut=40/intra_refresh=0/rc_lookahead=60/rc=2pass/mbtree=1/bitrate=2100/ratetol=1.0/qcomp=0.60/qpmin=0/qpmax=69/qpstep=4/cplxblur=20.0/qblur=0.5/vbv_maxrate=62500/vbv_bufsize=78125/nal_hrd=none/filler=0/ip_ratio=1.40/aq=1: 1.00
    Default : Yes
    Forced : No
    Color primaries : BT.601 PAL
    Transfer characteristics : BT.709
    Matrix coefficients : BT.601
    Audio
    ID : 2
    Format : AC-3
    Format/Info : Audio Coding 3
    Mode extension : CM (complete main)
    Format settings, Endianness : Big
    Codec ID : A_AC3
    Duration : 1h 27mn
    Bit rate mode : Constant
    Bit rate : 128 Kbps
    Channel(s) : 2 channels
    Channel positions : Front: L R
    Sampling rate : 48.0 KHz
    Bit depth : 16 bits
    Compression mode : Lossy
    Stream size : 79.7 MiB (6%)
    Title : Stereo
    Default : Yes
    Forced : No


    Скриншоты для ознакомления




    Звездопад (1981) WEB-DLRip [H.264] [hand made remastered]
    Рейтинг →
     (голосов: 1, оценка 3/5, голосовать можно 1 раз )

    Другие торренты по теме:

  • Maleficent. Shooting Stars / Малефисента. Звездопад 1.8.1 [Ru] скачать через торрент бесплатно
  • Frozen. Free Fall / Холодное Сердце. Звездопад 2.6 [Ru] скачать через торрент бесплатно
  • Золушка. Звездопад 1.4.1 [Ru] скачать через торрент бесплатно


    • Комментарии (0):

      Информация

      Информация

        Посетители, находящиеся в группе Гости, не могут оставлять комментарии в данной новости.

        ↓ Меню




        ↓ Опрос

        Вы добавили сайт в закладки?
        Да
        Нет


        Top 10 за месяц (Другое)