.
Авторизация | Регистрация
Хочешь лучшие торренты? Добавь свой email!
Добавить

Торрент скачать бесплатно

» » Перемещение / Displacement (2016) WEB-DLRip [MVO] [AD] торрент скачать бесплатно




    Перемещение / Displacement (2016) WEB-DLRip [MVO] [AD] торрент скачать бесплатно

    Опубликовал: Админ | Дата: 7-01-2018, 05:00 | Просмотров: 3

    Производство: США
    Жанр: Фантастика, Триллер
    Режиссер: Кеннет Мэдер

    Актеры
    Кортни Хоуп, Сара Дуглас, Брюс Дэвисон, Сьюзан Блейкли, Кристофер Бакус, Каран Оберой, Лу Ричардс, Аза Аллен, Кристин Брок, Майкл Жанг

    Описание

    После убийства своего парня молодая студентка, изучающая физику и страдающая потерей кратковременной памяти, должна найти способ обратить вспять квантовую аномалию времени, чтобы спасти себя и попытаться разгадать тайну убийства её возлюбленного.

    Возраст: 16+ (зрителям, достигшим 16 лет)
    Продолжительность: 01: 54: 19
    Качество видео: WEB-DLRip
    Перевод: Профессиональный многоголосый, закадровый
    Субтитры: отсутствуют
    Реклама: присутствуют текстовые вставки рекламы
    Видео: Xvid, 720x304, ~1623 Kbps
    Аудио: AC3, 2 ch, 192 Kbps

    Общее
    Полное имя : C: UsersNverDownloadsTorrentПеремещение 2016.avi
    Формат : AVI
    Формат/Информация : Audio Video Interleave
    Размер файла : 1, 46 Гбайт
    Продолжительность : 1 ч. 54 м.
    Общий поток : 1824 Кбит/сек
    Программа кодирования : VirtualDubMod 1.5.10.2 (build 2540/release)
    Библиотека кодирования : VirtualDubMod build 2540/release
    Видео
    Идентификатор : 0
    Формат : MPEG-4 Visual
    Профиль формата : Advanced Simple@L5
    Параметр BVOP формата : 2
    Параметр QPel формата : Нет
    Параметр GMC формата : Без точки перехода
    Параметр матрицы формата : Default (MPEG)
    Идентификатор кодека : XVID
    Идентификатор кодека/Подсказка : XviD
    Продолжительность : 1 ч. 54 м.
    Битрейт : 1623 Кбит/сек
    Ширина : 720 пикселей
    Высота : 304 пикселя
    Соотношение сторон : 2, 35: 1
    Частота кадров : 23, 976 (24000/1001) кадра/сек
    Цветовое пространство : YUV
    Субдискретизация насыщенности : 4: 2: 0
    Битовая глубина : 8 бит
    Тип развёртки : Прогрессивная
    Метод сжатия : С потерями
    Бит/(Пиксели*Кадры) : 0.309
    Размер потока : 1, 30 Гбайт (89%)
    Библиотека кодирования : XviD 1.2.1 (UTC 2008-12-04)
    Аудио
    Идентификатор : 1
    Формат : AC-3
    Формат/Информация : Audio Coding 3
    Расширение режима : CM (complete main)
    Параметр Endianness формата : Big
    Идентификатор кодека : 2000
    Продолжительность : 1 ч. 54 м.
    Вид битрейта : Постоянный
    Битрейт : 192 Кбит/сек
    Каналы : 2 канала
    Расположение каналов : Front: L R
    Частота : 48, 0 КГц
    Частота кадров : 31, 250 кадров/сек (1536 spf)
    Битовая глубина : 16 бит
    Метод сжатия : С потерями
    Размер потока : 157 Мбайт (11%)
    Выравнивание : Разделение по промежуткам
    Продолжительность промежутка : 42 мс. (1, 00 видеокадр)
    Время предзагрузки промежутка : 500 мс.

    Скриншоты для ознакомления



    Все одноименные релизы в Клубе
    Время раздачи: 24/7 (круглосуточно) (до появления первых 3-5 скачавших)


    Перемещение/Displacement (2016) WEB-DLRip [MVO] [AD]
    Рейтинг →
     (голосов: 1, оценка 4/5, голосовать можно 1 раз )

    Другие торренты по теме:



      Комментарии (0):

      Информация

      Информация

        Посетители, находящиеся в группе Гости, не могут оставлять комментарии в данной новости.

        ↓ Меню




        ↓ Опрос

        Вы добавили сайт в закладки?
        Да
        Нет


        Top 10 за месяц (Другое)