.
Авторизация | Регистрация
Хочешь лучшие торренты? Добавь свой email!
Добавить

Торрент скачать бесплатно

» » Рифаген / Riphagen (2016) WEB-DLRip [MVO] [AD] торрент скачать бесплатно




    Рифаген / Riphagen (2016) WEB-DLRip [MVO] [AD] торрент скачать бесплатно

    Опубликовал: Админ | Дата: 12-01-2018, 05:00 | Просмотров: 5

    Производство: Нидерланды/Pupkin Film, Vrijzinnig Protestantse Radio Omroep (VPRO)
    Жанр: Драма, Военный
    Режиссер: Питер Койперс

    Актеры
    Йерун ван Конингсбругге, Lisa Zweerman, Кай Грейданус, Анна Радсвелд, Jos Smit, Britte Lagcher, Сигрид Тен Нейпел, Хуб Смит, Боб Ступ, Тьеббо Герритсма

    Описание

    Этот фильм расскажет про Рифагена, голландского предателя времён Второй Мировой, который помогал нацистам в поимке евреев, а затем присваивал все их ценности себе. Он уничтожал группы сопротивления и заставил тех, кто искал правосудия после войны, выглядеть дураками.

    Релиз от: GreenRay Studio
    Продолжительность: 02: 12: 08
    Качество видео: WEB-DLRip
    Перевод: Многоголосый закадровый, любительский (GreenRay Studio)
    Субтитры: отсутствуют
    Реклама: присутствуют аудио, видео и текстовые вставки рекламы
    Видео: Xvid, 720x304, ~1828 Kbps
    Аудио: AC3, 2 ch, 384 Kbps

    General
    Complete name : /media/win/TORRENT/UPLOAD TORRENTS/Riphagen.2016.P.WEB-DLRip.2100MB.avi
    Format : AVI
    Format/Info : Audio Video Interleave
    Format profile : OpenDML
    File size : 2.05 GiB
    Duration : 2 h 12 min
    Overall bit rate : 2 224 kb/s
    Writing application : VirtualDubMod 1.5.10.2 (build 2540/release)
    Writing library : VirtualDubMod build 2540/release
    Video
    ID : 0
    Format : MPEG-4 Visual
    Format profile : Advanced Simple@L5
    Format settings : BVOP2
    Format settings, BVOP : 2
    Format settings, QPel : No
    Format settings, GMC : No warppoints
    Format settings, Matrix : Default (MPEG)
    Codec ID : XVID
    Codec ID/Hint : XviD
    Duration : 2 h 12 min
    Bit rate : 1 828 kb/s
    Width : 720 pixels
    Height : 304 pixels
    Display aspect ratio : 2.35: 1
    Frame rate : 25.000 FPS
    Color space : YUV
    Chroma subsampling : 4: 2: 0
    Bit depth : 8 bits
    Scan type : Progressive
    Compression mode : Lossy
    Bits/(Pixel*Frame) : 0.334
    Stream size : 1.69 GiB (82%)
    Writing library : XviD 1.2.1 (UTC 2008-12-04)
    Audio
    ID : 1
    Format : AC-3
    Format/Info : Audio Coding 3
    Codec ID : 2000
    Duration : 2 h 12 min
    Bit rate mode : Constant
    Bit rate : 384 kb/s
    Channel(s) : 2 channels
    Channel positions : Front: L R
    Sampling rate : 48.0 kHz
    Frame rate : 31.250 FPS (1536 SPF)
    Bit depth : 16 bits
    Compression mode : Lossy
    Stream size : 363 MiB (17%)
    Alignment : Split accross interleaves
    Interleave, duration : 40 ms (1.00 video frame)
    Interleave, preload duration : 500 ms
    Service kind : Complete Main

    Скриншоты для ознакомления



    Все одноименные релизы в Клубе
    Время раздачи: c 09: 00 до 22: 00 до пяти скачавших (до появления первых 3-5 скачавших)


    Рифаген/Riphagen (2016) WEB-DLRip [MVO] [AD]
    Рейтинг →
     (голосов: 1, оценка 3/5, голосовать можно 1 раз )

    Другие торренты по теме:

  • Рифаген / Riphagen (2016) BDRip [H.264 / 1080p] [MVO]
  • Рифаген / Riphagen (2016) WEB-DLRip [MVO]


    • Комментарии (0):

      Информация

      Информация

        Посетители, находящиеся в группе Гости, не могут оставлять комментарии в данной новости.

        ↓ Меню




        ↓ Опрос

        Вы добавили сайт в закладки?
        Да
        Нет


        Top 10 за месяц (Другое)