.
Авторизация | Регистрация
Хочешь лучшие торренты? Добавь свой email!
Добавить

Торрент скачать бесплатно

» » Дорожное приключение / Road Trip (2000) HDRip [H.264] [Hand Made Extended Unrated Cut] торрент скачать бесплатно




    Дорожное приключение / Road Trip (2000) HDRip [H.264] [Hand Made Extended Unrated Cut] торрент скачать бесплатно

    Опубликовал: Админ | Дата: 13-01-2018, 05:00 | Просмотров: 2

    Производство: США/DreamWorks SKG, The Montecito Picture Company
    Жанр: Комедия, Приключения
    Режиссер: Тодд Филлипс

    Актеры
    Брекин Мейер, Шонн Уильям Скотт, Эми Смарт, Паоло Костанзо, DJ Куоллс, Рейчел Блэнчард, Энтони Рэпп, Фред Уорд, Том Грин, Энди Дик

    Описание

    Студент Джош изменил своей девушке Тиффани, которая учится в другом университете, записал весь процесс на камеру и случайно отправил видеокассету ей в подарок. Чтобы спасти отношения, нужно перехватить плёнку раньше, чем та попадёт в руки адресата. Прихватив троих друзей, Джош отправляется в марш-бросок на машине через всю Америку.

    Возраст: 18+ (зрителям, достигшим 18 лет. запрещено для детей)
    Рейтинг MPAA: R (лицам до 17 лет обязательно присутствие взрослого)
    Релиз от: MAG3131
    Продолжительность: 01: 43: 21
    Качество видео: HDRip
    Перевод: Дублированный с вставками двухголосого
    Субтитры: Отсутствуют
    Видео: AVC/H.264, 720x392, ~1698 kbps, 23, 976 fps
    Аудио: AC3, 2 ch, 192 kbps
    Данная версия фильма на Blu-Ray не выходила как расширенная версия. Поэтому это Неофициальная (фанатная) версия. Добавленные сцены отличаются по качеству видео от самого фильма.

    Общее
    Уникальный идентификатор : 142630980503866507330056175349125381171 (0x6B4DBA4649133ED356827B63D9887C33)
    Полное имя : Дорожное приключение - 01 (Расширенная дополненная версия) (Road Trip - 01) (Extended Unrated Cut).mkv
    Формат : Matroska
    Версия формата : Version 2
    Размер файла : 1, 37 Гбайт
    Продолжительность : 1 ч. 43 м.
    Общий поток : 1891 Кбит/сек
    Дата кодирования : UTC 2018-01-12 11: 23: 50
    Программа кодирования : mkvmerge v19.0.0 (\'Brave Captain\') 64-bit
    Библиотека кодирования : libebml v1.3.5 + libmatroska v1.4.8
    Видео
    Идентификатор : 1
    Формат : AVC
    Формат/Информация : Advanced Video Codec
    Профиль формата : High@L4.1
    Настройки формата : CABAC/12 Ref Frames
    Параметр CABAC формата : Да
    Параметр RefFrames формата : 12 кадров
    Идентификатор кодека : V_MPEG4/ISO/AVC
    Продолжительность : 1 ч. 43 м.
    Битрейт : 1698 Кбит/сек
    Ширина : 720 пикселей
    Высота : 392 пикселя
    Соотношение сторон : 1, 85: 1
    Режим частоты кадров : Постоянный
    Частота кадров : 23, 976 (23976/1000) кадра/сек
    Цветовое пространство : YUV
    Субдискретизация насыщенности : 4: 2: 0
    Битовая глубина : 8 бит
    Тип развёртки : Прогрессивная
    Бит/(Пиксели*Кадры) : 0.251
    Размер потока : 1, 20 Гбайт (88%)
    Заголовок : Дорожное приключение - 01 (Расширенная дополненная версия) (Road Trip - 01) (Extended Unrated Cut)
    Библиотека кодирования : x264 core 152 r2851 ba24899
    Настройки программы : cabac=1/ref=12/deblock=1: -1: -1/analyse=0x3: 0x133/me=umh/subme=11/psy=1/psy_rd=1.00: 0.15/mixed_ref=1/me_range=64/chroma_me=1/trellis=2/8x8dct=1/cqm=0/deadzone=21, 11/fast_pskip=0/chroma_qp_offset=-3/threads=6/lookahead_threads=1/sliced_threads=0/nr=0/decimate=0/interlaced=0/bluray_compat=0/constrained_intra=0/bframes=16/b_pyramid=2/b_adapt=2/b_bias=0/direct=3/weightb=1/open_gop=0/weightp=2/keyint=240/keyint_min=23/scenecut=40/intra_refresh=0/rc_lookahead=60/rc=2pass/mbtree=0/bitrate=1698/ratetol=1.0/qcomp=0.60/qpmin=0/qpmax=69/qpstep=4/cplxblur=20.0/qblur=0.5/vbv_maxrate=50000/vbv_bufsize=62500/nal_hrd=none/filler=0/ip_ratio=1.40/pb_ratio=1.30/aq=1: 1.00
    Язык : English
    Default : Да
    Forced : Нет
    Аудио
    Идентификатор : 2
    Формат : AC-3
    Формат/Информация : Audio Coding 3
    Идентификатор кодека : A_AC3
    Продолжительность : 1 ч. 43 м.
    Вид битрейта : Постоянный
    Битрейт : 192 Кбит/сек
    Каналы : 2 канала
    Расположение каналов : Front: L R
    Частота : 48, 0 КГц
    Частота кадров : 31, 250 кадров/сек (1536 SPF)
    Битовая глубина : 16 бит
    Метод сжатия : С потерями
    Размер потока : 142 Мбайт (10%)
    Заголовок : Дублированный \'\'Неизвестно\'\' с вставками любительского двухголосого (AC-3, Постоянный, 192 Кбит/сек, 2 канала, 48, 0 КГц, 16 бит)
    Язык : Russian
    ServiceKind/String : Complete Main
    Default : Да
    Forced : Нет

    Скриншоты для ознакомления



    Все одноименные релизы в Клубе
    Время раздачи: 24/7 до первых 10 скачавших, потом ухожу с раздачи


    Дорожное приключение/Road Trip (2000) HDRip [H.264] [Hand Made Extended Unrated Cut]
    Рейтинг →
     (голосов: 1, оценка 5/5, голосовать можно 1 раз )

    Другие торренты по теме:

  • Дорожное приключение / Road Trip (2000) BDRip [H.264]


    • Комментарии (0):

      Информация

      Информация

        Посетители, находящиеся в группе Гости, не могут оставлять комментарии в данной новости.

        ↓ Меню




        ↓ Опрос

        Вы добавили сайт в закладки?
        Да
        Нет


        Top 10 за месяц (Другое)