.
Авторизация | Регистрация
Хочешь лучшие торренты? Добавь свой email!
Добавить

Торрент скачать бесплатно

» » Бренды Советской Эпохи (серии 84 из) (2013-2016) SATRip торрент скачать бесплатно




    Бренды Советской Эпохи (серии 84 из) (2013-2016) SATRip торрент скачать бесплатно

    Опубликовал: Админ | Дата: 17-07-2016, 04:04 | Просмотров: 57

    Телекомпания: Красная Линия
    Жанр: Документальный

    Описание

    В этом сериале вы увидите какая продукция была брендом Советской эпохи.
    Продолжительность: 84х~00: 05: 03
    Качество видео: SATRip
    Видео: Xvid, 852х480, ~2474 Kbps
    Аудио: MP3, 2 ch, 192 Kbps, CBR
    Код:

    Общее
    Полное имя : F:КИНОБренды Советской эпохиБренды Советской эпохи Детское кино.avi
    Формат : AVI
    Формат/Информация : Audio Video Interleave
    Размер файла : 96, 8 Мбайт
    Продолжительность : 5 м. Самое интересное в это истории, что об этом Потап ничего не знал. 3 с.
    Общий поток : 2678 Кбит/сек
    Программа кодирования : Lavf56.15.100
    Видео
    Идентификатор : 0
    Формат : xvid
    Идентификатор кодека : xvid
    Продолжительность : 5 м. 3 с.
    Битрейт : 2474 Кбит/сек
    Ширина : 852 пикселя
    Высота : 480 пикселей
    Соотношение сторон : 16:9
    Частота кадров : 25, 000 кадров/сек
    Тип развёртки : Прогрессивная
    Бит/(Пиксели*Кадры) : 0.242
    Размер потока : 89, 4 Мбайт (92%)
    Аудио
    Идентификатор : 1
    Формат : MPEG Audio
    Версия формата : Version 1
    Профиль формата : Layer 3
    Режим : Joint stereo
    Расширение режима : MS Stereo
    Идентификатор кодека : 55
    Идентификатор кодека/Подсказка : MP3
    Продолжительность : 5 м. 3 с.
    Вид битрейта : Постоянный
    Битрейт : 192 Кбит/сек
    Каналы : 2 канала
    Частота : 44, 1 КГц
    Метод сжатия : С потерями
    Размер потока : 6, 94 Мбайт (7%)
    Выравнивание : Соединение по промежуткам
    Продолжительность промежутка : 26 мс. (0, 65 видеокадр)
    Время предзагрузки промежутка : 26 мс.
    Библиотека кодирования : LAME3.99.5


    Скриншоты для ознакомления




    Бренды Советской Эпохи (серии 84 из) (2013-2016) SATRip
    Рейтинг →
     (голосов: 1, оценка 5/5, голосовать можно 1 раз )

    Другие торренты по теме:

  • Бренды Советской эпохи. ГОСТ (2016) SATRip


    • Комментарии (0):

      Информация

      Информация

        Посетители, находящиеся в группе Гости, не могут оставлять комментарии в данной новости.

        ↓ Меню




        ↓ Опрос

        Вы добавили сайт в закладки?
        Да
        Нет


        Top 10 за месяц (Передачи)