.
Авторизация | Регистрация
Хочешь лучшие торренты? Добавь свой email!
Добавить

Торрент скачать бесплатно

» » Nat Geo Wild: Дикие острова: Невиданные острова / Unseen Islands (2015) HDTVRip [H.264 / 720p] (сезон 1, серии 1-2 из 2) торрент скачать бесплатно




    Nat Geo Wild: Дикие острова: Невиданные острова / Unseen Islands (2015) HDTVRip [H.264 / 720p] (сезон 1, серии 1-2 из 2) торрент скачать бесплатно

    Опубликовал: Админ | Дата: 22-02-2017, 05:01 | Просмотров: 0

    Телекомпания: США, Warenhouse 51 Productions Redfern Natural History Productions
    Жанр: Документальный
    Режиссер: Стюарт Макферсон

    Описание

    До ближайшего населённого пункта тысячи километров.Эти скалы, разбросанные по семи морям, в числе самых удалённых мест на Земле. Но жизнь здесь кипит. Город пингвинов по населению не уступает Вашингтону, океан вокруг полон жизни. Края с жестокими нравами, где безобидные птицы становятся кровопийцами. Берега, на которых заканчиваются кругосветные путешествия и начинается новая жизнь. У этих островов есть кое-что общее, всё это британские заморские территории. Их жизнь до сих пор остаётся тайной. О таком странном сюжете не догадывалась даже Земфира. Давайте отправимся в путешествие и вместе мы раскроем секреты природы этих островов. Мы пройдём через южную Атлантику от ледяных пустынь Антарктиды к экватору. Побываем на островах известных лишь немногим.
    Продолжительность: 2x~00: 44: 00
    Качество видео: HDTVRip
    Перевод: Одноголосый закадровый, профессиональный, озвучено на студии Велес, текст читает Олег Белов
    Видео: AVC/H.264, 1280x720, ~5000 Kbps
    Аудио: AC3, 2 ch, 192 kbps
    Автор рипа: skorpionN

    Общее
    Уникальный идентификатор : 245860046648188083727475565911633084811 (0xB8F6EC2F4E1C2D7FBDB6A4B1D508C18B)
    Полное имя : F: КИНОNGW_Wild Unseen Islands _720p1_Atlantic Arks.mkv
    Формат : Matroska
    Версия формата : Version 4/Version 2
    Размер файла : 1, 59 Гбайт
    Продолжительность : 43 м. 59 с.
    Режим общего битрейта : Переменный
    Общий поток : 5187 Кбит/сек
    Дата кодирования : UTC 2015-11-16 14: 05: 21
    Программа кодирования : mkvmerge v7.3.0 (\'Nouages\') 64bit built on Oct 22 2014 18: 53: 34
    Библиотека кодирования : libebml v1.3.0 + libmatroska v1.4.1
    Видео
    Идентификатор : 1
    Формат : AVC
    Формат/Информация : Advanced Video Codec
    Профиль формата : High@L3.1
    Параметр CABAC формата : Да
    Параметр ReFrames формата : 3 кадра
    Идентификатор кодека : V_MPEG4/ISO/AVC
    Продолжительность : 43 м. 59 с.
    Вид битрейта : Переменный
    Битрейт : 5000 Кбит/сек
    Максимальный битрейт : 8000 Кбит/сек
    Ширина : 1280 пикселей
    Высота : 720 пикселей
    Соотношение сторон : 16: 9
    Режим частоты кадров : Постоянный
    Частота кадров : 25, 000 кадров/сек
    Стандарт вещания : NTSC
    Цветовое пространство : YUV
    Субдискретизация насыщенности : 4: 2: 0
    Битовая глубина : 8 бит
    Тип развёртки : Прогрессивная
    Бит/(Пиксели*Кадры) : 0.217
    Размер потока : 1, 53 Гбайт (96%)
    Библиотека кодирования : x264 core 114
    Настройки программы : cabac=1/ref=3/deblock=1: 0: 0/analyse=0x3: 0x113/me=hex/subme=7/psy=1/psy_rd=1.00: 0.00/mixed_ref=1/me_range=16/chroma_me=1/trellis=1/8x8dct=1/cqm=2/deadzone=21, 11/fast_pskip=1/chroma_qp_offset=-4/threads=6/sliced_threads=0/slices=1/nr=0/decimate=1/interlaced=0/constrained_intra=0/bframes=3/b_pyramid=0/b_adapt=1/b_bias=0/direct=1/weightb=1/open_gop=0/weightp=2/keyint=250/keyint_min=25/scenecut=40/intra_refresh=0/rc_lookahead=40/rc=2pass/mbtree=1/bitrate=5000/ratetol=1.0/qcomp=0.60/qpmin=5/qpmax=69/qpstep=4/cplxblur=20.0/qblur=0.5/vbv_maxrate=8000/vbv_bufsize=7995/nal_hrd=vbr/ip_ratio=1.40/aq=1: 1.00
    Default : Да
    Forced : Нет
    Цветовой диапазон : Limited
    Основные цвета : BT.709
    Характеристики трансфера : BT.709
    Коэффициенты матрицы : BT.709
    Аудио
    Идентификатор : 2
    Формат : AC-3
    Формат/Информация : Audio Coding 3
    Расширение режима : CM (complete main)
    Параметр Endianness формата : Big
    Идентификатор кодека : A_AC3
    Продолжительность : 43 м. 59 с.
    Вид битрейта : Постоянный
    Битрейт : 192 Кбит/сек
    Каналы : 2 канала
    Расположение каналов : Front: L R
    Частота : 48, 0 КГц
    Частота кадров : 31, 250 кадров/сек (1536 spf)
    Битовая глубина : 16 бит
    Метод сжатия : С потерями
    Размер потока : 60, 4 Мбайт (4%)
    Default : Да
    Forced : Нет


    Скриншоты для ознакомления




    Nat Geo Wild: Дикие острова: Невиданные острова/Unseen Islands (2015) HDTVRip [H.264/720p] (сезон 1, серии 1-2 из 2)
    Рейтинг →
     (голосов: 1, оценка 4/5, голосовать можно 1 раз )

    Другие торренты по теме:

  • Nat Geo Wild: Дикие земли Европы / Europes Great Wilderness (2015) HDTVRip [H.264 / 720p] (серии 1-3 из 3)
  • Дикие сердца / Our Wild Hearts (2013) HDTVRip скачать через торрент бесплатно
  • BBC. Дикие Карибы / Wild Caribbean (2007) HDTVRip [H.264 / 720p-LQ] (1-4 серия из 4)
  • Дикие белые львицы / White Lions - Born Wild (2012) HDTVRip (2 серии) [H.264 / 720p] скачать через торрент бесплатно
  • Дикость / Дикие Штучки / Wild Things (1998) BDRip [h264] [AVO] скачать через торрент бесплатно
  • Дикие лошади / Wild Horses (2015) HDRip [VO] скачать через торрент бесплатно
  • Дикие лошади / Wild Horses (2015) BDRip [H.264 / 1080p] [VO] скачать через торрент бесплатно
  • Дикие лошади / Wild Horses (2015) BDRip [H.264 / 720p] [VO] скачать через торрент бесплатно


    • Комментарии (0):

      Информация

      Информация

        Посетители, находящиеся в группе Гости, не могут оставлять комментарии в данной новости.

        ↓ Меню




        ↓ Опрос

        Вы добавили сайт в закладки?
        Да
        Нет


        Top 10 за месяц (Передачи)