.
Авторизация | Регистрация
Хочешь лучшие торренты? Добавь свой email!
Добавить

Торрент скачать бесплатно

» » Вести недели (01.10.2017) SATRip торрент скачать бесплатно




    Вести недели (01.10.2017) SATRip торрент скачать бесплатно

    Опубликовал: Админ | Дата: 2-10-2017, 05:00 | Просмотров: 3

    Телекомпания: Россия 1
    Жанр: Новости
    Ведущий: Дмитрий Киселёв

    Описание

    Вести недели - еженедельная итоговая информационная программа Всероссийской государственной телерадиокомпании, выходящая в эфир по воскресеньям в 20.00, с хронометражем от 1 часа 10 минут до 1 часа 30 минут. Программа Вести недели не имеет рубрик, но внутри неё может показываться в кратком виде фрагменты из программы Специальный корреспондент.
    Релиз от: -=DeMoH=-
    Продолжительность: 01: 36: 07
    Качество видео: SATRip
    Видео : MPEG4, XviD, 720x400 (16: 9), 25.000 fps, 1 800 Kbps (0.250 bit/pixel)
    Аудио : AC-3, 48.0 KHz, 2 ch, 192 Kbps, CBR

    Общее
    Полное имя : F: видеофильмыВести неделиВести недели.2017.10.01 SATRip.avi
    Формат : AVI
    Формат/Информация : Audio Video Interleave
    Размер файла : 1, 35 Гбайт
    Продолжительность : 1 ч. 36 м.
    Общий поток : 2001 Кбит/сек
    Программа кодирования : VirtualDubModRus 1.5.10.1 (build 2439/release)
    Библиотека кодирования : VirtualDubMod build 2439/release
    Видео
    Идентификатор : 0
    Формат : MPEG-4 Visual
    Профиль формата : Advanced Simple@L5
    Настройки формата : BVOP2
    Параметр BVOP формата : 2
    Параметр QPel формата : Нет
    Параметр GMC формата : Без точки перехода
    Параметр матрицы формата : Default (H.263)
    Идентификатор кодека : XVID
    Идентификатор кодека/Подсказка : XviD
    Продолжительность : 1 ч. 36 м.
    Битрейт : 1800 Кбит/сек
    Ширина : 720 пикселей
    Высота : 400 пикселей
    Соотношение сторон : 16: 9
    Частота кадров : 25, 000 кадров/сек
    Цветовое пространство : YUV
    Субдискретизация насыщенности : 4: 2: 0
    Битовая глубина : 8 бит
    Тип развёртки : Прогрессивная
    Метод сжатия : С потерями
    Бит/(Пиксели*Кадры) : 0.250
    Размер потока : 1, 21 Гбайт (90%)
    Библиотека кодирования : XviD 1.2.1 (UTC 2008-12-04)
    Аудио
    Идентификатор : 1
    Формат : AC-3
    Формат/Информация : Audio Coding 3
    Параметр Endianness формата : Big
    Идентификатор кодека : 2000
    Продолжительность : 1 ч. 36 м.
    Вид битрейта : Постоянный
    Битрейт : 192 Кбит/сек
    Каналы : 2 канала
    Расположение каналов : Front: L R
    Частота : 48, 0 КГц
    Частота кадров : 31, 250 кадров/сек (1536 SPF)
    Битовая глубина : 16 бит
    Метод сжатия : С потерями
    Размер потока : 132 Мбайт (10%)
    Выравнивание : Разделение по промежуткам
    Продолжительность промежутка : 40 мс. (1, 00 видеокадр)
    Время предзагрузки промежутка : 500 мс.
    ServiceKind/String : Complete Main

    Скриншоты для ознакомления



    Все одноименные релизы в Клубе
    Время раздачи: 24/7 (до появления первых 3-5 скачавших)

    Вести недели (01.10.2017) SATRip
    Рейтинг →
     (голосов: 1, оценка 3/5, голосовать можно 1 раз )

    Другие торренты по теме:

  • Вести недели (28.09.2014) SATRip
  • Вести недели (19.04.2015) SATRip скачать через торрент бесплатно
  • Вести недели (26.04.2015) SATRip скачать через торрент бесплатно
  • Вести недели (24.05.2015) SATRip скачать через торрент бесплатно
  • Вести недели (31.05.2015) SATRip скачать через торрент бесплатно
  • Вести недели (07.06.2015) SATRip скачать через торрент бесплатно
  • Вести недели (14.06.2015) SATRip скачать через торрент бесплатно
  • Вести недели (21.06.2015) SATRip скачать через торрент бесплатно


    • Комментарии (0):

      Информация

      Информация

        Посетители, находящиеся в группе Гости, не могут оставлять комментарии в данной новости.

        ↓ Меню




        ↓ Опрос

        Вы добавили сайт в закладки?
        Да
        Нет


        Top 10 за месяц (Передачи)