.
Авторизация | Регистрация
Хочешь лучшие торренты? Добавь свой email!
Добавить

Торрент скачать бесплатно

» » Беседа с Евгением Федоровым (26.10.2017) WEBRip [H.264 / 720p-LQ] торрент скачать бесплатно




    Беседа с Евгением Федоровым (26.10.2017) WEBRip [H.264 / 720p-LQ] торрент скачать бесплатно

    Опубликовал: Админ | Дата: 12-11-2017, 05:00 | Просмотров: 0

    Производство: Телевидение Национально-Освободительного Движения
    Жанр: Политика
    Участники: Светлана Попова, Евгений Федоров

    Описание

    Координатор штаба НОД-Екатеринбург Светлана Попова и депутат Государственной Думы Евгений Федоров в ходе беседы на громкой связи пообщались с работниками Крик-ТВ и общественниками Свердловской области. Автор книги Госпереворот. Технология предательства, Федоров рассказал технологию иностранных интервенций методом цветных революций.
    Продолжительность: 02: 12: 44
    Качество видео: WEBRip
    Видео: AVC/H.264, 1280x720 (16: 9), ~599 Kbps
    Аудио: AC3, 2 ch, 192 Kbps

    General
    Unique ID : 229403760086170102978249160275976982440 (0xAC958E9D7B9DFC8F83D37CDE77870FA8)
    Complete name : D: FilmБеседа с Евгением Федоровым 26.10.2017.mkv
    Format : Matroska
    Format version : Version 4/Version 2
    File size : 753 MiB
    Duration : 2 h 12 min
    Overall bit rate : 793 kb/s
    Encoded date : UTC 2017-11-11 09: 32: 38
    Writing application : mkvmerge v17.0.0 (\'Be Ur Friend\') 64-bit
    Writing library : libebml v1.3.5 + libmatroska v1.4.8
    Cover : Yes
    Attachments : cover.png
    Video
    ID : 1
    Format : AVC
    Format/Info : Advanced Video Codec
    Format profile : Main@L3.1
    Format settings : CABAC/3 Ref Frames
    Format settings, CABAC : Yes
    Format settings, RefFrames : 3 frames
    Codec ID : V_MPEG4/ISO/AVC
    Duration : 2 h 12 min
    Bit rate : 599 kb/s
    Width : 1 280 pixels
    Height : 720 pixels
    Display aspect ratio : 16: 9
    Frame rate mode : Constant
    Frame rate : 29.970 FPS
    Color space : YUV
    Chroma subsampling : 4: 2: 0
    Bit depth : 8 bits
    Scan type : Progressive
    Bits/(Pixel*Frame) : 0.022
    Stream size : 568 MiB (75%)
    Language : Russian
    Default : Yes
    Forced : No
    Color range : Limited
    Color primaries : BT.709
    Transfer characteristics : BT.709
    Matrix coefficients : BT.709
    Audio
    ID : 2
    Format : AC-3
    Format/Info : Audio Coding 3
    Format settings, Endianness : Big
    Codec ID : A_AC3
    Duration : 2 h 12 min
    Bit rate mode : Constant
    Bit rate : 192 kb/s
    Channel(s) : 2 channels
    Channel positions : Front: L R
    Sampling rate : 48.0 kHz
    Frame rate : 31.250 FPS (1536 SPF)
    Bit depth : 16 bits
    Compression mode : Lossy
    Stream size : 182 MiB (24%)
    Language : Russian
    Service kind : Complete Main
    Default : Yes
    Forced : No

    Скриншоты для ознакомления



    Все одноименные релизы в Клубе
    Время раздачи: 07: 00-23: 00 (до появления первых 3-5 скачавших)


    Беседа с Евгением Федоровым (26.10.2017) WEBRip [H.264/720p-LQ]
    Рейтинг →
     (голосов: 1, оценка 4/5, голосовать можно 1 раз )

    Другие торренты по теме:

  • Беседа с Евгением Федоровым (11.01.2018) WEBRip [H.264 / 720p-LQ]
  • Беседа с Евгением Федоровым (29.07.2017) WEBRip [H.264 / 720p-LQ]
  • Беседа с Евгением Федоровым (06.09.2017) WEBRip [H.264 / 1080p-LQ]
  • Беседа с Евгением Федоровым (05.09.2017) WEBRip [H.264 / 720p-LQ]
  • Беседа с Евгением Федоровым. Банковский кризис в России (13.09.2017) WEBRip [H.264 / 720p-LQ]
  • Беседа с Евгением Федоровым (18.09.2017) WEBRip [H.264 / 720p-LQ]
  • Беседа с Евгением Федоровым (20.09.2017) WEBRip [H.264 / 720p-LQ]
  • Беседа с Евгением Федоровым (22.09.2017) WEBRip [H.264 / 720p-LQ]


    • Комментарии (0):

      Информация

      Информация

        Посетители, находящиеся в группе Гости, не могут оставлять комментарии в данной новости.

        ↓ Меню




        ↓ Опрос

        Вы добавили сайт в закладки?
        Да
        Нет


        Top 10 за месяц (Передачи)