.
Авторизация | Регистрация
Хочешь лучшие торренты? Добавь свой email!
Добавить

Торрент скачать бесплатно

» » Вечерний квартал 95 (2017.11.11) WEB-DL [H.264 / 1080p-LQ] (выпуск 105) торрент скачать бесплатно




    Вечерний квартал 95 (2017.11.11) WEB-DL [H.264 / 1080p-LQ] (выпуск 105) торрент скачать бесплатно

    Опубликовал: Админ | Дата: 12-11-2017, 05:00 | Просмотров: 0

    Телекомпания: 1+1
    Производство: Студия 95 квартал, Телеканал Интер
    Жанр: Юмор
    Режиссер: Владимир Зеленский

    Актеры
    Владимир Зеленский, Юрий Крапов, Елена Кравец, Евгений Кошевой, Сергей Казанин, Александр Пикалов, Юрий Корявченков

    Описание

    Ребята из Вечернего квартала продолжают устанавливать свои правила. И ни авторитет звезд шоу-бизнеса, ни статус влиятельных политиков, ни сам президент Украины не могут этому помешать. Здесь правила одни для всех, и квартальщики внимательно следят за тем, чтобы все забавные законы соблюдались. Злостных правонарушителей ребята из Квартала определяют по отсутствию улыбки на лице. Но в сегодня такие вряд ли найдутся, ведь у нас - юмор высшего класса от Вечернего квартала.
    Релиз от: svlesin
    Продолжительность: 01: 25: 11
    Качество видео: WEB-DL
    Субтитры: Отсутствуют
    Видео: AVC, 1920x1080 (16: 9), 25.000 fps, 3 920 Kbps (0.076 bit/pixel)
    Аудио: AC-3, 44.1 KHz, 2 ch, 192 Kbps, CBR
    Код: выделить все
    Общее
    Уникальный идентификатор : 229449347769452856355605326445452487280 (0xAC9E5642F0C4B01BBA1872D75D046A70)
    Полное имя : D:[1]Вечерний квартал 95Вечерний квартал 95. Выпуск №105 (2017.11.11)_1080.mkv
    Формат : Matroska
    Версия формата : Version 4/Version 2
    Размер файла : 2, 50 Гбайт
    Продолжительность : 1 ч. 25 м.
    Общий поток : 4196 Кбит/сек
    Название фильма : Вечерний квартал 95. Выпуск №105 (2017.11.11)_1080_
    Дата кодирования : UTC 2017-11-11 21:52:47
    Программа кодирования : mkvmerge v17.0.0 (\'Be Ur Friend\') 64-bit
    Библиотека кодирования : libebml v1.3.5 + libmatroska v1.4.8
    Attachements : nnm-club.name.png
    DURATION : 01:25:11.571000000
    NUMBER_OF_FRAMES : 146758
    NUMBER_OF_BYTES : 122677706
    _STATISTICS_WRITING_APP : mkvmerge v17.0.0 (\'Be Ur Friend\') 64-bit
    _STATISTICS_WRITING_DATE_UTC : 2017-11-11 21:52:47
    _STATISTICS_TAGS : BPS DURATION NUMBER_OF_FRAMES NUMBER_OF_BYTES
    Видео
    Идентификатор : 1
    Формат : AVC
    Формат/Информация : Advanced Video Codec
    Профиль формата : High@L4
    Параметр CABAC формата : Да
    Параметр ReFrames формата : 2 кадра
    Идентификатор кодека : V_MPEG4/ISO/AVC
    Продолжительность : 1 ч. 25 м.
    Битрейт : 3920 Кбит/сек
    Ширина : 1920 пикселей
    Высота : 1080 пикселей
    Соотношение сторон : 16:9
    Режим частоты кадров : Постоянный
    Частота кадров : 25, 000 кадров/сек
    Цветовое пространство : YUV
    Субдискретизация насыщенности : 4:2:0
    Битовая глубина : 8 бит
    Тип развёртки : Прогрессивная
    Бит/(Пиксели*Кадры) : 0.076
    Размер потока : 2, 33 Гбайт (93%)
    Default : Да
    Forced : Нет
    Цветовой диапазон : Limited
    Основные цвета : BT.709
    Характеристики трансфера : BT.709
    Коэффициенты матрицы : BT.709
    Аудио
    Идентификатор : 2
    Формат : AC-3
    Формат/Информация : Audio Coding 3
    Расширение режима : CM (complete main)
    Параметр Endianness формата : Big
    Идентификатор кодека : A_AC3
    Продолжительность : 1 ч. 25 м.
    Вид битрейта : Постоянный
    Битрейт : 192 Кбит/сек
    Каналы : 2 канала
    Расположение каналов : Front: L R
    Частота : 44, 1 КГц
    Битовая глубина : 16 бит
    Метод сжатия : С потерями
    Размер потока : 117 Мбайт (5%)
    Default : Да
    Forced : Нет
    - Как Порошенко и депутаты смотрели фильм Слуга Народа
    - Девочка моя - Новый Рэп от Вована и Жеки
    - Детектор лжи - жизнь после исповеди
    - Секрет похудения Натальи Могилевской
    - Катафалк на литовских номерах VS Полиция
    - Электронные сигареты не вреднее электронной бутылки
    - Был бы ты бабой - Тестируем робота-собутыльника
    - Такси шара 555 и другие рекламные ролики от MOZGI
    - Новая жизнь - финальная песня

    Скриншоты для ознакомления



    Все одноименные релизы в Клубе
    Время раздачи: 24/7. До первых 5 скачавших.


    Вечерний квартал 95 (2017.11.11) WEB-DL [H.264/1080p-LQ] (выпуск 105)
    Рейтинг →
     (голосов: 1, оценка 5/5, голосовать можно 1 раз )

    Другие торренты по теме:

  • Вечерний квартал 95. Лучшее (2014.09.20) SATRip
  • Вечерний квартал 95. Лучшее (2014.09.27) SATRip
  • Вечерний квартал 95. Лучшее (2014.10.04) SATRip скачать через торрент бесплатно
  • Вечерний квартал 95. Выпуск №76 (2014.10.11) DVB
  • Вечерний квартал 95. Выпуск №76 (2014.10.11) SATRip
  • Вечерний квартал 95. Выпуск №77 (2014.10.18) DVB скачать через торрент бесплатно
  • Вечерний квартал 95. Выпуск №77 (2014.10.18) SATRip скачать через торрент бесплатно
  • Вечерний квартал 95. Выпуск №78 (2014.10.25) DVB скачать через торрент бесплатно


    • Комментарии (0):

      Информация

      Информация

        Посетители, находящиеся в группе Гости, не могут оставлять комментарии в данной новости.

        ↓ Меню




        ↓ Опрос

        Вы добавили сайт в закладки?
        Да
        Нет


        Top 10 за месяц (Передачи)