.
Авторизация | Регистрация
Хочешь лучшие торренты? Добавь свой email!
Добавить

Торрент скачать бесплатно

» » Прожекторперисхилтон (2017.11.11) SATRip (сезон 5, выпуск 10) торрент скачать бесплатно




    Прожекторперисхилтон (2017.11.11) SATRip (сезон 5, выпуск 10) торрент скачать бесплатно

    Опубликовал: Админ | Дата: 12-11-2017, 05:00 | Просмотров: 0

    Телекомпания: Первый канал
    Жанр: Юмор, ТВ-Шоу
    Ведущие: Александр Цекало, Сергей Светлаков, Иван Ургант и Гарик Мартиросян.
    Гости:

    Описание

    Неутомимая четверка снова в эфире в неизменном составе. Любимые юмористы вновь будут обсуждать свежие новости, давать самые острые комментарии о политической, экономической и культурной повестке и радовать зрителей искрометными шутками и импровизациями.
    Продолжительность: ~ 00: 30: 01
    Качество видео: SATRip
    Субтитры: Отсутствуют
    Видео: MPEG4, XviD, 704x448 (1.571), 25.000 fps, 1 670 Kbps (0.212 bit/pixel)
    Аудио: MP3, 48.0 KHz, 2 ch, 128 Kbps, CBR
    Код: выделить все
    Общее
    Полное имя : D:[1]Прожекторперисхилтон-newПрожекторперисхилтон (2017.11.11).avi
    Формат : AVI
    Формат/Информация : Audio Video Interleave
    Размер файла : 388 Мбайт
    Продолжительность : 30 м.
    Общий поток : 1808 Кбит/сек
    Программа кодирования : VirtualDubMod 1.5.10.3 |www.virtualdub-fr.org|| (build 2550/release)
    Библиотека кодирования : VirtualDub build 29808/release
    Видео
    Идентификатор : 0
    Формат : MPEG-4 Visual
    Профиль формата : Advanced Simple@L5
    Параметр BVOP формата : 2
    Параметр QPel формата : Нет
    Параметр GMC формата : Без точки перехода
    Параметр матрицы формата : Default (MPEG)
    Идентификатор кодека : XVID
    Идентификатор кодека/Подсказка : XviD
    Продолжительность : 30 м.
    Битрейт : 1670 Кбит/сек
    Ширина : 704 пикселя
    Высота : 448 пикселей
    Соотношение сторон : 16:10
    Частота кадров : 25, 000 кадров/сек
    Цветовое пространство : YUV
    Субдискретизация насыщенности : 4:2:0
    Битовая глубина : 8 бит
    Тип развёртки : Прогрессивная
    Метод сжатия : С потерями
    Бит/(Пиксели*Кадры) : 0.212
    Размер потока : 359 Мбайт (92%)
    Библиотека кодирования : XviD 1.2.1 (UTC 2008-12-04)
    Аудио
    Идентификатор : 1
    Формат : MPEG Audio
    Версия формата : Version 1
    Профиль формата : Layer 3
    Режим : Joint stereo
    Расширение режима : MS Stereo
    Идентификатор кодека : 55
    Идентификатор кодека/Подсказка : MP3
    Продолжительность : 30 м.
    Вид битрейта : Постоянный
    Битрейт : 128 Кбит/сек
    Каналы : 2 канала
    Частота : 48, 0 КГц
    Метод сжатия : С потерями
    Размер потока : 27, 5 Мбайт (7%)
    Выравнивание : Соединение по промежуткам
    Продолжительность промежутка : 40 мс. (1, 00 видеокадр)
    Время предзагрузки промежутка : 504 мс.
    Библиотека кодирования : LAME3.99r
    Настройки программы : -m j -V 4 -q 9 -lowpass 17 -b 128

    Скриншоты для ознакомления



    Все одноименные релизы в Клубе
    Время раздачи: 24/7. До первых 5 скачавших.


    Прожекторперисхилтон (2017.11.11) SATRip (сезон 5, выпуск 10)
    Рейтинг →
     (голосов: 1, оценка 5/5, голосовать можно 1 раз )

    Другие торренты по теме:

  • Прожекторперисхилтон (2017.03.04) SATRip (сезон 5, выпуск 1)
  • Прожекторперисхилтон (2017.03.11) SATRip (сезон 5, выпуск 2)
  • Прожекторперисхилтон (2017.03.18) SATRip (сезон 5, выпуск 3)
  • Прожекторперисхилтон (2017.03.25) SATRip (сезон 5, выпуск 4)
  • Прожекторперисхилтон (2017.04.01) SATRip (сезон 5, выпуск 5)
  • Прожекторперисхилтон (2017.04.22) SATRip (сезон 5, выпуск 6)
  • Прожекторперисхилтон (2017.04.29) SATRip (сезон 5, выпуск 7)
  • Прожекторперисхилтон (2017.10.28) SATRip (сезон 5, выпуск 8)


    • Комментарии (0):

      Информация

      Информация

        Посетители, находящиеся в группе Гости, не могут оставлять комментарии в данной новости.

        ↓ Меню




        ↓ Опрос

        Вы добавили сайт в закладки?
        Да
        Нет


        Top 10 за месяц (Передачи)