.
Авторизация | Регистрация
Хочешь лучшие торренты? Добавь свой email!
Добавить

Торрент скачать бесплатно

» » Лига смеха (2017.11.10) WEB-DL [H.264 / 1080p-LQ] (сезон 3, выпуск 12) торрент скачать бесплатно




    Лига смеха (2017.11.10) WEB-DL [H.264 / 1080p-LQ] (сезон 3, выпуск 12) торрент скачать бесплатно

    Опубликовал: Админ | Дата: 12-11-2017, 05:00 | Просмотров: 0

    Телекомпания: 1+1
    Жанр: Юмор
    Выпущено: Украина, Студия 95 квартал, Телеканал 1+1
    Жюри: Юрий Горбунов, Елена Кравец, Потап, Антон Лирник, Сергей Сивохо и Игорь Ласточкин
    Ведущий: Владимир Зеленский

    Описание

    Третий чемпионат Украины по юмору начинается. Теперь по пятницам самые смешные представители молодежи будут соревноваться в том, кто сможет больше надорвать животы зрителям. Состав жюри остался неизменным, судить будут Потап, Юрий Горбунов, Елена Кравец, Оля Полякова, Игорь Ласточкин, Сергей Сивохо и Антон Лирник. Отборочные игры перетекут в сезон любимого сериала, в котором шансы на победу имеет кто угодно, ведь триумфатор прошлого года, Прозрачный гонщик, показал, что даже нестандартный юмор имеет право не только на жизнь, но и на признание.
    Релиз от: svlesin
    Продолжительность: 01: 40: 40
    Качество видео: WEB-DL
    Субтитры: Отсутствуют
    Видео: AVC, 1920x1080 (16: 9), 25.000 fps, 2 824 Kbps (0.054 bit/pixel)
    Аудио: AC-3, 44.1 KHz, 2 ch, 192 Kbps, CBR
    Код: выделить все
    Общее
    Уникальный идентификатор : 240951538743392334260608765576719203148 (0xB545940F7AE9D9EAB78557C3E6257B4C)
    Полное имя : D:[1]Лига смехаЛига смеха. Сезон 3. Выпуск 12 (2017.11.10)_1080.mkv
    Формат : Matroska
    Версия формата : Version 4/Version 2
    Размер файла : 2, 16 Гбайт
    Продолжительность : 1 ч. 40 м.
    Общий поток : 3077 Кбит/сек
    Название фильма : Лига смеха. Сезон 3. Выпуск 12 (2017.11.10)_1080_nnm-club.name
    Дата кодирования : UTC 2017-11-11 10:49:27
    Программа кодирования : mkvmerge v17.0.0 (\'Be Ur Friend\') 64-bit
    Библиотека кодирования : libebml v1.3.5 + libmatroska v1.4.8
    Attachements : nnm-club.name.png
    DURATION : 01:40:40.520000000
    NUMBER_OF_FRAMES : 173429
    NUMBER_OF_BYTES : 144972486
    _STATISTICS_WRITING_APP : mkvmerge v17.0.0 (\'Be Ur Friend\') 64-bit
    _STATISTICS_WRITING_DATE_UTC : 2017-11-11 10:49:27
    _STATISTICS_TAGS : BPS DURATION NUMBER_OF_FRAMES NUMBER_OF_BYTES
    Видео
    Идентификатор : 1
    Формат : AVC
    Формат/Информация : Advanced Video Codec
    Профиль формата : High@L4
    Параметр CABAC формата : Да
    Параметр ReFrames формата : 3 кадра
    Идентификатор кодека : V_MPEG4/ISO/AVC
    Продолжительность : 1 ч. 40 м.
    Битрейт : 2824 Кбит/сек
    Ширина : 1920 пикселей
    Высота : 1080 пикселей
    Соотношение сторон : 16:9
    Режим частоты кадров : Постоянный
    Частота кадров : 25, 000 кадров/сек
    Цветовое пространство : YUV
    Субдискретизация насыщенности : 4:2:0
    Битовая глубина : 8 бит
    Тип развёртки : Прогрессивная
    Бит/(Пиксели*Кадры) : 0.054
    Размер потока : 1, 99 Гбайт (92%)
    Default : Да
    Forced : Нет
    Цветовой диапазон : Limited
    Основные цвета : BT.709
    Характеристики трансфера : BT.709
    Коэффициенты матрицы : BT.709
    Аудио
    Идентификатор : 2
    Формат : AC-3
    Формат/Информация : Audio Coding 3
    Расширение режима : CM (complete main)
    Параметр Endianness формата : Big
    Идентификатор кодека : A_AC3
    Продолжительность : 1 ч. 40 м.
    Вид битрейта : Постоянный
    Битрейт : 192 Кбит/сек
    Каналы : 2 канала
    Расположение каналов : Front: L R
    Частота : 44, 1 КГц
    Битовая глубина : 16 бит
    Метод сжатия : С потерями
    Размер потока : 138 Мбайт (6%)
    Default : Да
    Forced : Нет

    Скриншоты для ознакомления



    Все одноименные релизы в Клубе
    Время раздачи: 24/7. До первых 5 скачавших.


    Лига смеха (2017.11.10) WEB-DL [H.264/1080p-LQ] (сезон 3, выпуск 12)
    Рейтинг →
     (голосов: 1, оценка 3/5, голосовать можно 1 раз )

    Другие торренты по теме:

  • Лига смеха. Выпуск 4 (2015.05.30) SATRip скачать через торрент бесплатно
  • Лига смеха. Выпуск 5 (2015.06.06) SATRip скачать через торрент бесплатно
  • Лига смеха. Выпуск 6 (2015.10.03) SATRip скачать через торрент бесплатно
  • Лига смеха. Выпуск 7 (2015.10.10) SATRip скачать через торрент бесплатно
  • Лига смеха. Выпуск 8. Финал (2016.01.02) SATRip скачать через торрент бесплатно
  • Лига смеха. Выпуск 9. Зимний кубок (2016.01.09) SATRip скачать через торрент бесплатно
  • Лига смеха (2016.03.05) SATRip (сезон 2, выпуск 1)
  • Лига смеха (2016.03.12) SATRip (сезон 2, выпуск 2)


    • Комментарии (0):

      Информация

      Информация

        Посетители, находящиеся в группе Гости, не могут оставлять комментарии в данной новости.

        ↓ Меню




        ↓ Опрос

        Вы добавили сайт в закладки?
        Да
        Нет


        Top 10 за месяц (Передачи)