.
Авторизация | Регистрация
Хочешь лучшие торренты? Добавь свой email!
Добавить

Торрент скачать бесплатно

» » Cкелетон. Кубок мира 2017-2018. 1-й Этап. Лейк-Плэсид (США). Женщины (09.11.2017) WEB-DL [H.264 / 1080p-LQ] [EN] торрент скачать бесплатно




    Cкелетон. Кубок мира 2017-2018. 1-й Этап. Лейк-Плэсид (США). Женщины (09.11.2017) WEB-DL [H.264 / 1080p-LQ] [EN] торрент скачать бесплатно

    Опубликовал: Админ | Дата: 12-11-2017, 05:00 | Просмотров: 0

    Телекомпания: IBSF TV
    Жанр: Спорт

    Описание
    09 ноября 2017 года, четверг. 16: 30 МСК
    Cкелетон. Кубок мира 2017-2018. 1-й Этап. Лейк-Плэсид (США)
    Женщины. 1-я и 2-я попытка
    Стадион: Олимпийская санно-бобслейная трасса (Лейк-Плэсид, США)
    Продолжительность: 01: 47: 36
    Качество видео: WEB-DL
    Язык озвучки: Английский
    Субтитры: отсутствуют
    Видео: AVC/H.264, 1920x1080 (16: 9), ~3372 Kbps
    Аудио: AAC, 2 ch, ~126 Kbps

    Общее
    Уникальный идентификатор : 219367608053804988859286063190699013825 (0xA508AA1DD90EE5D8AB95CAB65AF9F6C1)
    Полное имя : F: SPORTБобслей(09.11.2017)_IBSF WC 17-18.1.Lake Placid(USA).1. Womens Skeleton(Full).mkv
    Формат : Matroska
    Версия формата : Version 4/Version 2
    Размер файла : 2, 63 Гбайт
    Продолжительность : 1 ч. 47 м.
    Общий поток : 3500 Кбит/сек
    Дата кодирования : UTC 2017-11-10 13: 38: 56
    Программа кодирования : mkvmerge v17.0.0 (\'Be Ur Friend\') 32-bit
    Библиотека кодирования : libebml v1.3.5 + libmatroska v1.4.8
    Видео
    Идентификатор : 1
    Формат : AVC
    Формат/Информация : Advanced Video Codec
    Профиль формата : High@L4
    Настройки формата : CABAC/2 Ref Frames
    Параметр CABAC формата : Да
    Параметр RefFrames формата : 2 кадра
    Идентификатор кодека : V_MPEG4/ISO/AVC
    Продолжительность : 1 ч. 47 м.
    Битрейт : 3372 Кбит/сек
    Ширина : 1920 пикселей
    Высота : 1080 пикселей
    Соотношение сторон : 16: 9
    Режим частоты кадров : Постоянный
    Частота кадров : 25, 000 кадров/сек
    Цветовое пространство : YUV
    Субдискретизация насыщенности : 4: 2: 0
    Битовая глубина : 8 бит
    Тип развёртки : Прогрессивная
    Бит/(Пиксели*Кадры) : 0.065
    Размер потока : 2, 53 Гбайт (96%)
    Default : Да
    Forced : Нет
    Цветовой диапазон : Limited
    Основные цвета : BT.709
    Характеристики трансфера : BT.709
    Коэффициенты матрицы : BT.709
    Аудио
    Идентификатор : 2
    Формат : AAC
    Формат/Информация : Advanced Audio Codec
    Профиль формата : LC
    Идентификатор кодека : A_AAC-2
    Продолжительность : 1 ч. 47 м.
    Битрейт : 126 Кбит/сек
    Каналы : 2 канала
    Расположение каналов : Front: L R
    Частота : 44, 1 КГц
    Частота кадров : 43, 066 кадра/сек (1024 SPF)
    Метод сжатия : С потерями
    Размер потока : 96, 7 Мбайт (4%)
    Язык : English
    Default : Да
    Forced : Нет

    Скриншоты для ознакомления



    Все одноименные релизы в Клубе
    Время раздачи: 24/7. (Около 1 месяца.)


    Cкелетон. Кубок мира 2017-2018. 1-й Этап. Лейк-Плэсид (США). Женщины (09.11.2017) WEB-DL [H.264/1080p-LQ] [EN]
    Рейтинг →
     (голосов: 1, оценка 5/5, голосовать можно 1 раз )

    Другие торренты по теме:

  • Cкелетон. Кубок мира 2017-2018. 6-й Этап. Альтенберг (Германия). Мужчины (05.01.2018) WEB-DL [H.264 / 720p-LQ]
  • Cкелетон. Кубок мира 2017-2018. 6-й Этап. Альтенберг (Германия). Женщины 2-я попытка (05.01.2018) WEB-DL [H.264 / 720p-LQ] [EN]
  • Cкелетон. Кубок мира 2017-2018. 6-й Этап. Альтенберг (Германия). Женщины 1-я попытка (05.01.2018) WEB-DL [H.264 / 720-LQ]
  • Cкелетон. Кубок мира 2016-2017. 1-й Этап. Уистлер (Канадa). Мужчины. 1-я и 2-я попытка (03.12.2016) WEB-DL [H.264 / 720p-LQ]
  • Cкелетон. Кубок мира 2016-2017. 1-й Этап. Уистлер (Канадa). Женщины. 1-я и 2-я попытка (02.12.2016) WEB-DL [H.264 / 720p-LQ]
  • Cкелетон. Кубок мира 2016-2017. 7-й Этап. Иглс (Австрия). Мужчины (03.02.2017) IPTV [H.264 / 720p-LQ]
  • Cкелетон. Кубок мира 2016-2017. 7-й Этап. Иглс (Австрия). Женщины (03.02.2017) IPTV [H.264 / 720p-LQ]
  • Cкелетон. Кубок мира 2016-2017. 8-й Этап. Пхёнчхан (Корея). Женщины, Мужчины (17.03.2017) IPTV [H.264 / 720p-LQ]


    • Комментарии (0):

      Информация

      Информация

        Посетители, находящиеся в группе Гости, не могут оставлять комментарии в данной новости.

        ↓ Меню




        ↓ Опрос

        Вы добавили сайт в закладки?
        Да
        Нет


        Top 10 за месяц (Передачи)