.
Авторизация | Регистрация
Хочешь лучшие торренты? Добавь свой email!
Добавить

Торрент скачать бесплатно

» » Успех (2017.11.12) SATRip (выпуск 2) торрент скачать бесплатно




    Успех (2017.11.12) SATRip (выпуск 2) торрент скачать бесплатно

    Опубликовал: Админ | Дата: 13-11-2017, 05:00 | Просмотров: 0

    Телекомпания: СТС
    Жанр: Музыкальное Шоу
    Ведущие: Вера Брежнева
    Судьи: Нюша, Гнойный и Филипп Киркоров

    Описание

    Чтобы стать звездой, необязательно иметь много денег и продюсера! Если ты талантливый вокалист — от сцены тебя отделяет всего один шаг. И мы докажем это в новом шоу Успех, которое можно смотреть онлайн бесплатно в хорошем качестве сразу после выхода выпусков шоу в эфир! Вокальное шоу Успех мировая пресса уже назвала заменой суперпопулярному проекту American Idol. В основе Успеха — новый глобальный формат The Final Four компании Armoza Formats, на счету которой более ста проектов, реализованных по всему миру. Зрители СТС увидят шоу первыми и смогут смотреть онлайн любимые выпуски в любое удобное время на ctc.ru.
    Масштабные декорации, сотни талантливых исполнителей, три суперзвезды в жюри и ни одного музыкального продюсера — Успех опровергнет главное правило шоу-бизнеса и докажет, что стать суперзвездой возможно и без поддержки известного лейбла.
    Продолжительность: ~ 01: 28: 28
    Качество видео: SATRip
    Субтитры: Отсутствуют
    Реклама: Присутствуют вставки текстовой рекламы
    Видео: MPEG4, XviD, 720x400 (16: 9), 25.000 fps, 1 805 Kbps (0.251 bit/pixel)
    Аудио: MP3, 48.0 KHz, 2 ch, 128 Kbps, CBR
    Код: выделить все
    Общее
    Полное имя : D:[1]УспехУспех. Выпуск 2 (2017.11.12).avi
    Формат : AVI
    Формат/Информация : Audio Video Interleave
    Размер файла : 1, 20 Гбайт
    Продолжительность : 1 ч. 28 м.
    Общий поток : 1943 Кбит/сек
    Программа кодирования : VirtualDubMod 1.5.10.3 |www.virtualdub-fr.org|| (build 2550/release)
    Библиотека кодирования : VirtualDubMod build 2550/release
    Видео
    Идентификатор : 0
    Формат : MPEG-4 Visual
    Профиль формата : Advanced Simple@L5
    Параметр BVOP формата : 1
    Параметр QPel формата : Нет
    Параметр GMC формата : Без точки перехода
    Параметр матрицы формата : Default (MPEG)
    Идентификатор кодека : XVID
    Идентификатор кодека/Подсказка : XviD
    Продолжительность : 1 ч. 28 м.
    Битрейт : 1805 Кбит/сек
    Ширина : 720 пикселей
    Высота : 400 пикселей
    Соотношение сторон : 16:9
    Частота кадров : 25, 000 кадров/сек
    Цветовое пространство : YUV
    Субдискретизация насыщенности : 4:2:0
    Битовая глубина : 8 бит
    Тип развёртки : Прогрессивная
    Метод сжатия : С потерями
    Бит/(Пиксели*Кадры) : 0.251
    Размер потока : 1, 12 Гбайт (93%)
    Библиотека кодирования : XviD 1.2.1 (UTC 2008-12-04)
    Аудио
    Идентификатор : 1
    Формат : MPEG Audio
    Версия формата : Version 1
    Профиль формата : Layer 3
    Идентификатор кодека : 55
    Идентификатор кодека/Подсказка : MP3
    Продолжительность : 1 ч. 28 м.
    Вид битрейта : Постоянный
    Битрейт : 128 Кбит/сек
    Каналы : 2 канала
    Частота : 48, 0 КГц
    Метод сжатия : С потерями
    Размер потока : 81, 0 Мбайт (7%)
    Выравнивание : Соединение по промежуткам
    Продолжительность промежутка : 40 мс. (1, 00 видеокадр)
    Время предзагрузки промежутка : 504 мс.
    Библиотека кодирования : LAME3.99r
    Настройки программы : -m s -V 4 -q 2 -lowpass 17 -b 128

    Скриншоты для ознакомления



    Все одноименные релизы в Клубе
    Время раздачи: 24/7. До первых 5 скачавших.


    Успех (2017.11.12) SATRip (выпуск 2)
    Рейтинг →
     (голосов: 1, оценка 4/5, голосовать можно 1 раз )

    Другие торренты по теме:

  • Успех (2017.11.05) SATRip (выпуск 1)
  • Успех (2017.11.19) SATRip (выпуск 3)
  • Успех (2017.11.26) SATRip (выпуск 4)
  • Успех (2017.12.03) SATRip (выпуск 5)
  • Успех (2017.12.10) SATRip (выпуск 6)
  • Успех (2017.12.17) SATRip (выпуск 7)
  • Успех (2017.12.24) SATRip (выпуск 8 - финал)


    • Комментарии (0):

      Информация

      Информация

        Посетители, находящиеся в группе Гости, не могут оставлять комментарии в данной новости.

        ↓ Меню




        ↓ Опрос

        Вы добавили сайт в закладки?
        Да
        Нет


        Top 10 за месяц (Передачи)