.
Авторизация | Регистрация
Хочешь лучшие торренты? Добавь свой email!
Добавить

Торрент скачать бесплатно

» » Орел и решка. Рай и ад-2 (2017.11.12) WEB-DLRip (сезон 15: Фортелеза. Бразилия) торрент скачать бесплатно




    Орел и решка. Рай и ад-2 (2017.11.12) WEB-DLRip (сезон 15: Фортелеза. Бразилия) торрент скачать бесплатно

    Опубликовал: Админ | Дата: 13-11-2017, 05:00 | Просмотров: 1

    Телекомпания: ИНТЕР
    Жанр: Реалити-шоу, путешествия, география, познавательный
    Ведущий: Регина Тодоренко и Натали Неведрова

    Описание

    Команда проекта продолжит свои райско-адские путешествия по миру, но во второй части Рая и ада зрителей ждут изменения.
    Во-первых, немного поменяется концепция: теперь прекрасное и ужасное будут искать в каждом исследуемом городе. Во-вторых, в 15-м сезон любимого сериалае вместо ушедшей в отпуск Леси Никитюк путешествовать с Региной Тодоренко будет новый ведущий. Его имя поклонники проекта узнают совсем скоро!
    Еще один сюрприз - первые выпуски 15-го сезон любимого сериалаа посвящены особенностям безвизового режима для украинцев. Куда можно и нужно поехать, где лучше наслаждаться отдыхом, чего бояться и опасаться в путешествиях - все это в новом сезон любимого сериалае проекта Орел и решка. Рай и ад 2.

    Возраст: 12+ (зрителям, достигшим 12 лет)
    Релиз от: svlesin
    Продолжительность: ~ 00: 43: 57
    Качество видео: WEB-DLRip
    Субтитры: Отсутствуют
    Видео: MPEG4, XviD, 720x400 (16: 9), 25.000 fps, 1 800 Kbps (0.250 bit/pixel)
    Аудио: MP3, 44.1 KHz, 2 ch, 192 Kbps, CBR
    Код: выделить все
    Общее
    Полное имя : D:[1]Орел и решкаОрел и решка. Рай и ад - 2 (2017.11.12) - Фортелеза_Бразилия.avi
    Формат : AVI
    Формат/Информация : Audio Video Interleave
    Размер файла : 629 Мбайт
    Продолжительность : 43 м.
    Общий поток : 2001 Кбит/сек
    Название фильма : Orel I reshka. Rai I ad-2 (2017.11.12) - Fortaleza_Braziliya_nnm-club.name
    Программа кодирования : VirtualDubModRus 1.5.10.2 (build 2542/release)
    Библиотека кодирования : VirtualDubMod build 2542/release
    Видео
    Идентификатор : 0
    Формат : MPEG-4 Visual
    Профиль формата : Advanced Simple@L5
    Параметр BVOP формата : 1
    Параметр QPel формата : Нет
    Параметр GMC формата : Без точки перехода
    Параметр матрицы формата : Default (H.263)
    Идентификатор кодека : XVID
    Идентификатор кодека/Подсказка : XviD
    Продолжительность : 43 м.
    Битрейт : 1800 Кбит/сек
    Ширина : 720 пикселей
    Высота : 400 пикселей
    Соотношение сторон : 16:9
    Частота кадров : 25, 000 кадров/сек
    Цветовое пространство : YUV
    Субдискретизация насыщенности : 4:2:0
    Битовая глубина : 8 бит
    Тип развёртки : Прогрессивная
    Метод сжатия : С потерями
    Бит/(Пиксели*Кадры) : 0.250
    Размер потока : 566 Мбайт (90%)
    Библиотека кодирования : XviD 67
    Аудио
    Идентификатор : 1
    Формат : MPEG Audio
    Версия формата : Version 1
    Профиль формата : Layer 3
    Режим : Joint stereo
    Расширение режима : MS Stereo
    Идентификатор кодека : 55
    Идентификатор кодека/Подсказка : MP3
    Продолжительность : 43 м.
    Вид битрейта : Постоянный
    Битрейт : 192 Кбит/сек
    Каналы : 2 канала
    Частота : 44, 1 КГц
    Метод сжатия : С потерями
    Размер потока : 60, 4 Мбайт (10%)
    Выравнивание : Разделение по промежуткам
    Продолжительность промежутка : 40 мс. (1, 00 видеокадр)
    Время предзагрузки промежутка : 500 мс.
    Библиотека кодирования : LAME3.99.5
    Орёл и Решка. Рай и Ад-2 в самом горячем и страстном городе Бразилии - Форталеза! Форталеза - это километры песчаных пляжей, прохладный бриз Атлантического океана и адреналиновые развлечения! Здесь Регина Тодоренко упала с высоты 15-этажного дома...ну...если быть точными, в аквапарке Beach Park прокатилась на Инсано (Insano) - уже не самой высокой, но до сих пор самой безумной водной горке в мире. А Натали Неведрова искала покой и блаженство в Lagoa do Paraíso, что в переводе означает Райская лагуна! Форталеза - это немного не та Бразилия, к который мы привыкли...Хотя...что вам рассказывать? Смотрите сами!

    Скриншоты для ознакомления



    Все одноименные релизы в Клубе
    Время раздачи: 24/7. До первых 5 скачавших.


    Орел и решка. Рай и ад-2 (2017.11.12) WEB-DLRip (сезон 15: Фортелеза. Бразилия)
    Рейтинг →
     (голосов: 1, оценка 3/5, голосовать можно 1 раз )

    Другие торренты по теме:

  • Орел и решка. Сезон №1. Шопинг. Стокгольм (2014.09.23) SATRip
  • Орел и решка. Сезон №9. Неизведанная Европа. Роттердам (2014.09.28) SATRip
  • Орел и решка. Сезон №1. Шопинг. Амман (2014.09.30) SATRip скачать через торрент бесплатно
  • Орел и решка. Сезон №9. Неизведанная Европа. Страна Басков (Испания) (2014.10.05) SATRip скачать через торрент бесплатно
  • Орел и решка. Сезон №9. Неизведанная Европа. Сараево (2014.10.06) SATRip скачать через торрент бесплатно
  • Орел и решка (1-8 сезон: 1-134 выпуски, Неизданное 1-3 выпуск) (2011 - 2014) SATRip, HDTVRip скачать через торрент бесплатно
  • Орел и решка. Сезон №1. Шопинг. Каир (2014.10.07) SATRip скачать через торрент бесплатно
  • Орел и решка. Сезон №9. Неизведанная Европа. Сарагоса (2014.10.19) WEBRip


    • Комментарии (0):

      Информация

      Информация

        Посетители, находящиеся в группе Гости, не могут оставлять комментарии в данной новости.

        ↓ Меню




        ↓ Опрос

        Вы добавили сайт в закладки?
        Да
        Нет


        Top 10 за месяц (Передачи)