.
Авторизация | Регистрация
Хочешь лучшие торренты? Добавь свой email!
Добавить

Торрент скачать бесплатно

» » Хоккей. Евро хоккей тур 2017—2018. Кубок Карьяла 2017. Финляндия – Швеция (11.11.2017) HDTVRip [H.264 / 720p-LQ] [hand made 50fps] торрент скачать бесплатно




    Хоккей. Евро хоккей тур 2017—2018. Кубок Карьяла 2017. Финляндия – Швеция (11.11.2017) HDTVRip [H.264 / 720p-LQ] [hand made 50fps] торрент скачать бесплатно

    Опубликовал: Админ | Дата: 13-11-2017, 05:00 | Просмотров: 2

    Телекомпания: Матч! Игра HD
    Жанр: Спорт
    Комментаторы: Александр Хаванов, Роман Скворцов, Александр Байков, Олег Мосалев Артём Батрак Владимир Гучек

    Описание
    11 ноября 2017 года, суббота. 18: 30 МСК
    Евро хоккей тур 2017—2018. Кубок Карьяла 2017
    Финляндия – Швеция
    Стадион: Хартвалл-Арена (Хельсинки, Финляндия), 13085 зрителей (97 % при вместимости 13464)
    Главные судьи: Робин Шир (Чехия), Рене Градил (Чехия)
    Релиз от: toshap
    Продолжительность: 01: 34: 19
    Качество видео: HDTVRip
    Язык озвучки: Русский
    Субтитры: отсутствуют
    Видео: AVC/H.264, 1280x720 (16: 9), ~ 4156 Kbps, 50 fps
    Аудио: AC3, 2 ch, 48.0 KHz, 128 Kbps
    Доп. информация: Трансляция началась на 8 минуте 1-го периода
    Код: выделить все

    Общее
    Уникальный идентификатор : 246370993936894256625344993921394302695 (0xB95953D4C1927560BC49489DCF845EE7)
    Полное имя : F:SPORTХоккейЕвротур 17-18(11.11.2017)_EHT 17-18.Karjala Cup 2017. Finland - Sweden.mkv
    Формат : Matroska
    Версия формата : Version 4/Version 2
    Размер файла : 2, 82 Гбайт
    Продолжительность : 1 ч. 34 м.
    Общий поток : 4287 Кбит/сек
    Дата кодирования : UTC 2017-11-12 17:15:18
    Программа кодирования : mkvmerge v17.0.0 (\'Be Ur Friend\') 32-bit
    Библиотека кодирования : libebml v1.3.5 + libmatroska v1.4.8
    Видео
    Идентификатор : 1
    Формат : AVC
    Формат/Информация : Advanced Video Codec
    Профиль формата : High@L4
    Настройки формата : CABAC/8 Ref Frames
    Параметр CABAC формата : Да
    Параметр RefFrames формата : 8 кадров
    Идентификатор кодека : V_MPEG4/ISO/AVC
    Продолжительность : 1 ч. 34 м.
    Битрейт : 4156 Кбит/сек
    Ширина : 1280 пикселей
    Высота : 720 пикселей
    Соотношение сторон : 16:9
    Режим частоты кадров : Постоянный
    Частота кадров : 50, 000 кадров/сек
    Цветовое пространство : YUV
    Субдискретизация насыщенности : 4:2:0
    Битовая глубина : 8 бит
    Тип развёртки : Прогрессивная
    Бит/(Пиксели*Кадры) : 0.090
    Размер потока : 2, 74 Гбайт (97%)
    Default : Да
    Forced : Нет
    Аудио
    Идентификатор : 2
    Формат : AC-3
    Формат/Информация : Audio Coding 3
    Параметр Endianness формата : Big
    Идентификатор кодека : A_AC3
    Продолжительность : 1 ч. 34 м.
    Вид битрейта : Постоянный
    Битрейт : 128 Кбит/сек
    Каналы : 2 канала
    Расположение каналов : Front: L R
    Частота : 48, 0 КГц
    Частота кадров : 31, 250 кадров/сек (1536 SPF)
    Битовая глубина : 16 бит
    Метод сжатия : С потерями
    Размер потока : 86, 3 Мбайт (3%)
    Язык : Russian
    ServiceKind/String : Complete Main
    Default : Да
    Forced : Нет

    Скриншоты для ознакомления



    Все одноименные релизы в Клубе
    Время раздачи: 24/7 (около 1 месяца)


    Хоккей. Евро хоккей тур 2017—2018. Кубок Карьяла 2017. Финляндия – Швеция (11.11.2017) HDTVRip [H.264/720p-LQ] [hand made 50fps]
    Рейтинг →
     (голосов: 1, оценка 3/5, голосовать можно 1 раз )

    Другие торренты по теме:

  • Хоккей. Евро хоккей тур 2016-2017. Кубок Первого канала. 3-й тур. Чехия — Швеция (18.12.2016) HDTVRip [H.264 / 1080p-LQ]
  • Хоккей. Евро хоккей тур 2017—2018. Кубок Карьяла 2017. Швейцария – Канада (08.11.2017) HDTVRip [H.264 / 720p-LQ] [hand made 50fps]
  • Хоккей. Евро хоккей тур 2017—2018. Кубок Карьяла 2017. Швеция – Чехия (08.11.2017) HDTVRip [H.264 / 720p-LQ] [hand made 50fps]
  • Хоккей. Евро хоккей тур 2017—2018. Кубок Карьяла 2017. Россия – Финляндия (09.11.2017) HDTVRip [H.264 / 720p-LQ] [hand made 50fps]
  • Хоккей. Евро хоккей тур 2017—2018. Кубок Карьяла 2017. Канада – Швеция (10.11.2017) HDTVRip [H.264 / 720p-LQ] [hand made 50fps]
  • Хоккей. Евро хоккей тур 2017—2018. Кубок Карьяла 2017. Швейцария – Россия (11.11.2017) HDTVRip [H.264 / 720p-LQ] [hand made 50fps]
  • Хоккей. Евро хоккей тур 2017—2018. Кубок Карьяла 2017. Чехия – Швейцария (10.11.2017) HDTVRip [H.264 / 720p-LQ] [hand made 50fps]
  • Хоккей. Евро хоккей тур 2017—2018. Кубок Карьяла 2017. Россия – Чехия (12.11.2017) HDTVRip [H.264 / 720p-LQ] [hand made 50fps]


    • Комментарии (0):

      Информация

      Информация

        Посетители, находящиеся в группе Гости, не могут оставлять комментарии в данной новости.

        ↓ Меню




        ↓ Опрос

        Вы добавили сайт в закладки?
        Да
        Нет


        Top 10 за месяц (Передачи)