.
Авторизация | Регистрация
Хочешь лучшие торренты? Добавь свой email!
Добавить

Торрент скачать бесплатно

» » Хоккей. Евро хоккей тур 2017—2018. Кубок Карьяла 2017. Швейцария – Россия (11.11.2017) HDTVRip [H.264 / 720p-LQ] [hand made 50fps] торрент скачать бесплатно




    Хоккей. Евро хоккей тур 2017—2018. Кубок Карьяла 2017. Швейцария – Россия (11.11.2017) HDTVRip [H.264 / 720p-LQ] [hand made 50fps] торрент скачать бесплатно

    Опубликовал: Админ | Дата: 13-11-2017, 05:00 | Просмотров: 0

    Телекомпания: Матч ТВ HD
    Жанр: Спорт
    Комментаторы: Александр Хаванов, Роман Скворцов

    Описание
    11 ноября 2017 года, суббота. 14: 30 МСК
    Евро хоккей тур 2017—2018. Кубок Карьяла 2017
    Швейцария – Россия
    Стадион: Хартвалл-Арена (Хельсинки, Финляндия), 2713 зрителей (20 % при вместимости 13464)
    Главные судьи: Ансси Салонен (Финляндия), Алекси Рантала (Финляндия)
    Релиз от: toshap
    Продолжительность: 01: 52: 05
    Качество видео: HDTVRip
    Язык озвучки: Русский, Интершум
    Субтитры: отсутствуют
    Видео: AVC/H.264, 1280x720 (16: 9), ~ 3932 Kbps, 50 fps
    Аудио #1: AC3, 2 ch, 48.0 KHz, ~128 Kbps | Русский
    Аудио #2: AC3, 2 ch, 48.0 KHz, ~128 Kbps | Интершум
    Код: выделить все

    Общее
    Уникальный идентификатор : 185641666611523349548156676197781151012 (0x8BA948D2B7ECD46C43423458EEB11D24)
    Полное имя : F:SPORTХоккейЕвротур 17-18(11.11.2017)_EHT 17-18.Karjala Cup 2017. Switzerland - Russia.mkv
    Формат : Matroska
    Версия формата : Version 4/Version 2
    Размер файла : 3, 35 Гбайт
    Продолжительность : 1 ч. 52 м.
    Общий поток : 4273 Кбит/сек
    Программа кодирования : Lavf57.72.101
    Библиотека кодирования : Lavf57.72.101
    ErrorDetectionType : Per level 1
    Видео
    Идентификатор : 1
    Формат : AVC
    Формат/Информация : Advanced Video Codec
    Профиль формата :High@L3.2
    Настройки формата : CABAC/4 Ref Frames
    Параметр CABAC формата : Да
    Параметр RefFrames формата : 4 кадра
    Идентификатор кодека : V_MPEG4/ISO/AVC
    Продолжительность : 1 ч. 52 м.
    Битрейт : 3932 Кбит/сек
    Ширина : 1280 пикселей
    Высота : 720 пикселей
    Соотношение сторон : 16:9
    Режим частоты кадров : Постоянный
    Цветовое пространство : YUV
    Субдискретизация насыщенности : 4:2:0
    Битовая глубина : 8 бит
    Тип развёртки : Прогрессивная
    Размер потока : 3, 08 Гбайт (92%)
    Библиотека кодирования : Lavc57.96.101 libx264
    Default : Да
    Forced : Нет
    Аудио #1
    Идентификатор : 2
    Формат : AC-3
    Формат/Информация : Audio Coding 3
    Параметр Endianness формата : Big
    Идентификатор кодека : A_AC3
    Продолжительность : 1 ч. 52 м.
    Вид битрейта : Постоянный
    Битрейт : 128 Кбит/сек
    Каналы : 2 канала
    Расположение каналов : Front: L R
    Частота : 48, 0 КГц
    Частота кадров : 31, 250 кадров/сек (1536 SPF)
    Битовая глубина : 16 бит
    Метод сжатия : С потерями
    Задержка видео : -21 мс.
    Размер потока : 103 Мбайт (3%)
    Библиотека кодирования : Lavc57.96.101 ac3
    Язык : Russian
    ServiceKind/String : Complete Main
    Default : Да
    Forced : Нет
    Аудио #2
    Идентификатор : 3
    Формат : AC-3
    Формат/Информация : Audio Coding 3
    Параметр Endianness формата : Big
    Идентификатор кодека : A_AC3
    Продолжительность : 1 ч. 52 м.
    Вид битрейта : Постоянный
    Битрейт : 128 Кбит/сек
    Каналы : 2 канала
    Расположение каналов : Front: L R
    Частота : 48, 0 КГц
    Частота кадров : 31, 250 кадров/сек (1536 SPF)
    Битовая глубина : 16 бит
    Метод сжатия : С потерями
    Задержка видео : -21 мс.
    Размер потока : 103 Мбайт (3%)
    Библиотека кодирования : Lavc57.96.101 ac3
    ServiceKind/String : Complete Main
    Default : Да
    Forced : Нет

    Скриншоты для ознакомления



    Все одноименные релизы в Клубе
    Время раздачи: 24/7 (около 1 месяца)


    Хоккей. Евро хоккей тур 2017—2018. Кубок Карьяла 2017. Швейцария – Россия (11.11.2017) HDTVRip [H.264/720p-LQ] [hand made 50fps]
    Рейтинг →
     (голосов: 1, оценка 5/5, голосовать можно 1 раз )

    Другие торренты по теме:

  • Хоккей. Евро хоккей тур 2016-2017. Кубок Первого канала. 3-й тур. Чехия — Швеция (18.12.2016) HDTVRip [H.264 / 1080p-LQ]
  • Хоккей. Евро хоккей тур 2017—2018. Кубок Карьяла 2017. Швейцария – Канада (08.11.2017) HDTVRip [H.264 / 720p-LQ] [hand made 50fps]
  • Хоккей. Евро хоккей тур 2017—2018. Кубок Карьяла 2017. Швеция – Чехия (08.11.2017) HDTVRip [H.264 / 720p-LQ] [hand made 50fps]
  • Хоккей. Евро хоккей тур 2017—2018. Кубок Карьяла 2017. Россия – Финляндия (09.11.2017) HDTVRip [H.264 / 720p-LQ] [hand made 50fps]
  • Хоккей. Евро хоккей тур 2017—2018. Кубок Карьяла 2017. Канада – Швеция (10.11.2017) HDTVRip [H.264 / 720p-LQ] [hand made 50fps]
  • Хоккей. Евро хоккей тур 2017—2018. Кубок Карьяла 2017. Финляндия – Швеция (11.11.2017) HDTVRip [H.264 / 720p-LQ] [hand made 50fps]
  • Хоккей. Евро хоккей тур 2017—2018. Кубок Карьяла 2017. Чехия – Швейцария (10.11.2017) HDTVRip [H.264 / 720p-LQ] [hand made 50fps]
  • Хоккей. Евро хоккей тур 2017—2018. Кубок Карьяла 2017. Россия – Чехия (12.11.2017) HDTVRip [H.264 / 720p-LQ] [hand made 50fps]


    • Комментарии (0):

      Информация

      Информация

        Посетители, находящиеся в группе Гости, не могут оставлять комментарии в данной новости.

        ↓ Меню




        ↓ Опрос

        Вы добавили сайт в закладки?
        Да
        Нет


        Top 10 за месяц (Передачи)