.
Авторизация | Регистрация
Хочешь лучшие торренты? Добавь свой email!
Добавить

Торрент скачать бесплатно

» » Экстрасенсы ведут расследование (Битва сильнейших) (2018.02.03) SATRip (сезон 9, выпуск 05) торрент скачать бесплатно




    Экстрасенсы ведут расследование (Битва сильнейших) (2018.02.03) SATRip (сезон 9, выпуск 05) торрент скачать бесплатно

    Опубликовал: Админ | Дата: 4-02-2018, 05:00 | Просмотров: 11

    Телекомпания: ТНТ
    Жанр: Реалити Шоу

    Описание

    Документальный триллер-детектив с участием самых загадочных экстрасенсов России! Это не шоу, а демонстрация реальной мощи ясновидения. Участники и победители нескольких сезон любимого сериалаов Битвы экстрасенсов приводят документальные доказательства того, как паранормальные способности способны помочь людям. В этом цикле экстрасенсы находят пропавших родственников и угнанные автомобили, избавляют жилище от привидений и возвращают супругов в семьи. В фильмах создается эффект присутствия - зритель выступает очевидцем всех этапов процесса расследования. Комментарии свидетелей – следователей, самих героев событий – подтверждают правдоподобность происходящего на экране. А особенный интерес вызывает то, как люди со сверхвозможностями существуют в своих привычных условиях жизни и работы.
    Продолжительность: ~ 01: 10: 00
    Качество видео: SATRip
    Субтитры: Отсутствуют
    Реклама: Присутствуют вставки текстовой рекламы
    Видео: Xvid, 720x400 (16: 9), ~1800 Kbps
    Аудио: MP3, 2 ch, 128 Kbps

    Общее
    Полное имя : G: Bitva.ekstrasensov.18.18.SATRip.avi
    Формат : AVI
    Формат/Информация : Audio Video Interleave
    Размер файла : 981 Мбайт
    Продолжительность : 1 ч. 10 м.
    Общий поток : 1937 Кбит/сек
    Программа кодирования : VirtualDubMod 1.5.10.3 |www.virtualdub-fr.org|| (build 2550/release)
    Библиотека кодирования : VirtualDubMod build 2550/release
    Видео
    Идентификатор : 0
    Формат : MPEG-4 Visual
    Профиль формата : Advanced Simple@L5
    Настройки формата : BVOP2
    Параметр BVOP формата : 2
    Параметр QPel формата : Нет
    Параметр GMC формата : Без точки перехода
    Параметр матрицы формата : Default (H.263)
    Идентификатор кодека : XVID
    Идентификатор кодека/Подсказка : XviD
    Продолжительность : 1 ч. 10 м.
    Битрейт : 1800 Кбит/сек
    Ширина : 720 пикселей
    Высота : 400 пикселей
    Соотношение сторон : 16: 9
    Частота кадров : 25, 000 кадров/сек
    Цветовое пространство : YUV
    Субдискретизация насыщенности : 4: 2: 0
    Битовая глубина : 8 бит
    Тип развёртки : Прогрессивная
    Метод сжатия : С потерями
    Бит/(Пиксели*Кадры) : 0.250
    Размер потока : 911 Мбайт (93%)
    Библиотека кодирования : XviD 1.2.1 (UTC 2008-12-04)
    Аудио
    Идентификатор : 1
    Формат : MPEG Audio
    Версия формата : Version 1
    Профиль формата : Layer 3
    Настройки формата : Joint stereo/MS Stereo
    Идентификатор кодека : 55
    Идентификатор кодека/Подсказка : MP3
    Продолжительность : 1 ч. 10 м.
    Вид битрейта : Постоянный
    Битрейт : 128 Кбит/сек
    Каналы : 2 канала
    Частота : 48, 0 КГц
    Частота кадров : 41, 667 кадра/сек (1152 SPF)
    Метод сжатия : С потерями
    Размер потока : 64, 8 Мбайт (7%)
    Выравнивание : Соединение по промежуткам
    Продолжительность промежутка : 40 мс. (1, 00 видеокадр)
    Время предзагрузки промежутка : 504 мс.
    Библиотека кодирования : LAME3.99r
    Настройки программы : -m j -V 4 -q 9 -lowpass 17 -b 128

    Скриншоты для ознакомления



    Все одноименные релизы в Клубе
    Время раздачи: 24/7 (круглосуточно) (до появления первых 3-5 скачавших)


    Экстрасенсы ведут расследование (Битва сильнейших) (2018.02.03) SATRip (сезон 9, выпуск 05)
    Рейтинг →
     (голосов: 1, оценка 5/5, голосовать можно 1 раз )

    Другие торренты по теме:

  • Экстрасенсы. Битва сильнейших (Экстрасенсы ведут расследование) (17.02.2018) WEBRip (сезон 10, выпуск 01)
  • Экстрасенсы. Битва сильнейших (Экстрасенсы ведут расследование) (24.02.2018) WEBRip [H.264 / 1080p-LQ] (сезон 10, выпуск 02) [AD]
  • Экстрасенсы. Битва сильнейших (Экстрасенсы ведут расследование) (03.03.2018) WEBRip [H.264 / 1080p-LQ] (сезон 10, выпуск 03(131))
  • Экстрасенсы. Битва сильнейших (Экстрасенсы ведут расследование) (10.03.2018) WEBRip [H.264 / 720p-LQ] (сезон 10, выпуск 04(132))
  • Экстрасенсы. Битва сильнейших (Экстрасенсы ведут расследование) (17.03.2018) WEBRip [H.264 / 720p-LQ] (сезон 10, выпуск 05(133))
  • Экстрасенсы. Битва сильнейших (Экстрасенсы ведут расследование) (24.03.2018) WEBRip [H.264 / 720p-LQ] (сезон 10, выпуск 06(134))
  • Экстрасенсы. Битва сильнейших (Экстрасенсы ведут расследование) (31.03.2018) WEBRip [H.264 / 720p-LQ] (сезон 10, выпуск 07(135))
  • Экстрасенсы. Битва сильнейших (Экстрасенсы ведут расследование) (07.04.2018) WEBRip [H.264 / 720p-LQ] (сезон 10, выпуск 08(136))


    • Комментарии (0):

      Информация

      Информация

        Посетители, находящиеся в группе Гости, не могут оставлять комментарии в данной новости.

        ↓ Меню




        ↓ Опрос

        Вы добавили сайт в закладки?
        Да
        Нет


        Top 10 за месяц (Передачи)